  0
SECTION
  2
HEADER
  9
$ACADVER
  1
AC1015
  9
$ACADMAINTVER
 70
    20
  9
$DWGCODEPAGE
  3
ANSI_932
  9
$INSBASE
 10
0.0
 20
0.0
 30
0.0
  9
$EXTMIN
 10
197556.3444587833
 20
8897.710211493047
 30
-0.0000000349181948
  9
$EXTMAX
 10
203871.1294184013
 20
13353.90057896008
 30
0.0000000814935746
  9
$LIMMIN
 10
0.0
 20
0.0
  9
$LIMMAX
 10
420.0
 20
297.0
  9
$ORTHOMODE
 70
     1
  9
$REGENMODE
 70
     1
  9
$FILLMODE
 70
     1
  9
$QTEXTMODE
 70
     0
  9
$MIRRTEXT
 70
     1
  9
$LTSCALE
 40
50.0
  9
$ATTMODE
 70
     1
  9
$TEXTSIZE
 40
0.2
  9
$TRACEWID
 40
0.05
  9
$TEXTSTYLE
  7
YOKO_GOTHIC
  9
$CLAYER
  8
D-TTL　外枠
  9
$CELTYPE
  6
ByLayer
  9
$CECOLOR
 62
   256
  9
$CELTSCALE
 40
1.0
  9
$DISPSILH
 70
     0
  9
$DIMSCALE
 40
40.0
  9
$DIMASZ
 40
3.0
  9
$DIMEXO
 40
1.6
  9
$DIMDLI
 40
0.38
  9
$DIMRND
 40
0.0
  9
$DIMDLE
 40
0.0
  9
$DIMEXE
 40
1.199999999999999
  9
$DIMTP
 40
0.0
  9
$DIMTM
 40
0.0
  9
$DIMTXT
 40
2.5
  9
$DIMCEN
 40
0.09
  9
$DIMTSZ
 40
0.0
  9
$DIMTOL
 70
     0
  9
$DIMLIM
 70
     0
  9
$DIMTIH
 70
     0
  9
$DIMTOH
 70
     0
  9
$DIMSE1
 70
     0
  9
$DIMSE2
 70
     0
  9
$DIMTAD
 70
     1
  9
$DIMZIN
 70
     8
  9
$DIMBLK
  1
DotSmall
  9
$DIMASO
 70
     1
  9
$DIMSHO
 70
     1
  9
$DIMPOST
  1

  9
$DIMAPOST
  1

  9
$DIMALT
 70
     0
  9
$DIMALTD
 70
     2
  9
$DIMALTF
 40
25.4
  9
$DIMLFAC
 40
1.0
  9
$DIMTOFL
 70
     1
  9
$DIMTVP
 40
0.0
  9
$DIMTIX
 70
     1
  9
$DIMSOXD
 70
     1
  9
$DIMSAH
 70
     0
  9
$DIMBLK1
  1

  9
$DIMBLK2
  1

  9
$DIMSTYLE
  2
1-40
  9
$DIMCLRD
 70
     0
  9
$DIMCLRE
 70
     0
  9
$DIMCLRT
 70
     0
  9
$DIMTFAC
 40
1.0
  9
$DIMGAP
 40
0.8877599999999999
  9
$DIMJUST
 70
     0
  9
$DIMSD1
 70
     0
  9
$DIMSD2
 70
     0
  9
$DIMTOLJ
 70
     1
  9
$DIMTZIN
 70
     0
  9
$DIMALTZ
 70
     0
  9
$DIMALTTZ
 70
     0
  9
$DIMUPT
 70
     0
  9
$DIMDEC
 70
     1
  9
$DIMTDEC
 70
     1
  9
$DIMALTU
 70
     2
  9
$DIMALTTD
 70
     2
  9
$DIMTXSTY
  7
YOKO_GOTHIC
  9
$DIMAUNIT
 70
     0
  9
$DIMADEC
 70
     0
  9
$DIMALTRND
 40
0.0
  9
$DIMAZIN
 70
     2
  9
$DIMDSEP
 70
     0
  9
$DIMATFIT
 70
     3
  9
$DIMFRAC
 70
     0
  9
$DIMLDRBLK
  1
OPEN30
  9
$DIMLUNIT
 70
     2
  9
$DIMLWD
 70
    -2
  9
$DIMLWE
 70
    -2
  9
$DIMTMOVE
 70
     0
  9
$LUNITS
 70
     2
  9
$LUPREC
 70
     4
  9
$SKETCHINC
 40
0.1
  9
$FILLETRAD
 40
0.0
  9
$AUNITS
 70
     0
  9
$AUPREC
 70
     0
  9
$MENU
  1
acad
  9
$ELEVATION
 40
0.0
  9
$PELEVATION
 40
0.0
  9
$THICKNESS
 40
0.0
  9
$LIMCHECK
 70
     0
  9
$CHAMFERA
 40
0.0
  9
$CHAMFERB
 40
0.0
  9
$CHAMFERC
 40
0.0
  9
$CHAMFERD
 40
0.0
  9
$SKPOLY
 70
     0
  9
$TDCREATE
 40
2455426.923043982
  9
$TDUCREATE
 40
2455426.548043982
  9
$TDUPDATE
 40
2457163.694106077
  9
$TDUUPDATE
 40
2457163.319106076
  9
$TDINDWG
 40
0.5142962037
  9
$TDUSRTIMER
 40
0.5142962037
  9
$USRTIMER
 70
     1
  9
$ANGBASE
 50
0.0
  9
$ANGDIR
 70
     0
  9
$PDMODE
 70
     0
  9
$PDSIZE
 40
0.0
  9
$PLINEWID
 40
0.0
  9
$SPLFRAME
 70
     0
  9
$SPLINETYPE
 70
     6
  9
$SPLINESEGS
 70
     8
  9
$HANDSEED
  5
31E20
  9
$SURFTAB1
 70
     6
  9
$SURFTAB2
 70
     6
  9
$SURFTYPE
 70
     6
  9
$SURFU
 70
     6
  9
$SURFV
 70
     6
  9
$UCSBASE
  2

  9
$UCSNAME
  2

  9
$UCSORG
 10
0.0
 20
0.0
 30
0.0
  9
$UCSXDIR
 10
1.0
 20
0.0
 30
0.0
  9
$UCSYDIR
 10
0.0
 20
1.0
 30
0.0
  9
$UCSORTHOREF
  2

  9
$UCSORTHOVIEW
 70
     0
  9
$UCSORGTOP
 10
0.0
 20
0.0
 30
0.0
  9
$UCSORGBOTTOM
 10
0.0
 20
0.0
 30
0.0
  9
$UCSORGLEFT
 10
0.0
 20
0.0
 30
0.0
  9
$UCSORGRIGHT
 10
0.0
 20
0.0
 30
0.0
  9
$UCSORGFRONT
 10
0.0
 20
0.0
 30
0.0
  9
$UCSORGBACK
 10
0.0
 20
0.0
 30
0.0
  9
$PUCSBASE
  2

  9
$PUCSNAME
  2

  9
$PUCSORG
 10
0.0
 20
0.0
 30
0.0
  9
$PUCSXDIR
 10
1.0
 20
0.0
 30
0.0
  9
$PUCSYDIR
 10
0.0
 20
1.0
 30
0.0
  9
$PUCSORTHOREF
  2

  9
$PUCSORTHOVIEW
 70
     0
  9
$PUCSORGTOP
 10
0.0
 20
0.0
 30
0.0
  9
$PUCSORGBOTTOM
 10
0.0
 20
0.0
 30
0.0
  9
$PUCSORGLEFT
 10
0.0
 20
0.0
 30
0.0
  9
$PUCSORGRIGHT
 10
0.0
 20
0.0
 30
0.0
  9
$PUCSORGFRONT
 10
0.0
 20
0.0
 30
0.0
  9
$PUCSORGBACK
 10
0.0
 20
0.0
 30
0.0
  9
$USERI1
 70
     0
  9
$USERI2
 70
     0
  9
$USERI3
 70
     0
  9
$USERI4
 70
     0
  9
$USERI5
 70
     0
  9
$USERR1
 40
0.0
  9
$USERR2
 40
0.0
  9
$USERR3
 40
0.0
  9
$USERR4
 40
0.0
  9
$USERR5
 40
0.0
  9
$WORLDVIEW
 70
     1
  9
$SHADEDGE
 70
     3
  9
$SHADEDIF
 70
    70
  9
$TILEMODE
 70
     1
  9
$MAXACTVP
 70
    16
  9
$PINSBASE
 10
0.0
 20
0.0
 30
0.0
  9
$PLIMCHECK
 70
     0
  9
$PEXTMIN
 10
1.122749993181603
 20
0.7804166500962629
 30
0.0
  9
$PEXTMAX
 10
10.10474993863444
 20
7.023749850866362
 30
0.0
  9
$PLIMMIN
 10
-0.2312499519408218
 20
-0.2312499894870548
  9
$PLIMMAX
 10
11.45874984621063
 20
8.035416452903447
  9
$UNITMODE
 70
     0
  9
$VISRETAIN
 70
     0
  9
$PLINEGEN
 70
     1
  9
$PSLTSCALE
 70
     0
  9
$TREEDEPTH
 70
  3020
  9
$CMLSTYLE
  2
Standard
  9
$CMLJUST
 70
     0
  9
$CMLSCALE
 40
1.0
  9
$PROXYGRAPHICS
 70
     0
  9
$MEASUREMENT
 70
     0
  9
$CELWEIGHT
370
    -1
  9
$ENDCAPS
280
     0
  9
$JOINSTYLE
280
     0
  9
$LWDISPLAY
290
     0
  9
$INSUNITS
 70
     0
  9
$HYPERLINKBASE
  1

  9
$STYLESHEET
  1
CAD製図基準案.ctb
  9
$XEDIT
290
     1
  9
$CEPSNTYPE
380
     0
  9
$PSTYLEMODE
290
     1
  9
$FINGERPRINTGUID
  2

  9
$VERSIONGUID
  2
{0BDB638C-C11D-4EBE-9F13-1C2C673C617C}
  9
$EXTNAMES
290
     1
  9
$PSVPSCALE
 40
0.0
  9
$OLESTARTUP
290
     0
  0
ENDSEC
  0
SECTION
  2
CLASSES
  0
CLASS
  1
IMAGE
  2
AcDbRasterImage
  3
ISM
 90
    32895
280
     0
281
     1
  0
CLASS
  1
DICTIONARYVAR
  2
AcDbDictionaryVar
  3
ObjectDBX Classes
 90
        0
280
     0
281
     0
  0
CLASS
  1
RASTERVARIABLES
  2
AcDbRasterVariables
  3
ISM
 90
    32768
280
     0
281
     0
  0
CLASS
  1
IMAGEDEF
  2
AcDbRasterImageDef
  3
ISM
 90
    32768
280
     0
281
     0
  0
CLASS
  1
IMAGEDEF_REACTOR
  2
AcDbRasterImageDefReactor
  3
ISM
 90
    32769
280
     0
281
     0
  0
CLASS
  1
IDBUFFER
  2
AcDbIdBuffer
  3
ObjectDBX Classes
 90
    32768
280
     0
281
     0
  0
CLASS
  1
SPATIAL_FILTER
  2
AcDbSpatialFilter
  3
ObjectDBX Classes
 90
    32768
280
     0
281
     0
  0
CLASS
  1
SORTENTSTABLE
  2
AcDbSortentsTable
  3
ObjectDBX Classes
 90
        0
280
     0
281
     0
  0
CLASS
  1
LAYER_INDEX
  2
AcDbLayerIndex
  3
ObjectDBX Classes
 90
    32768
280
     0
281
     0
  0
CLASS
  1
SPATIAL_INDEX
  2
AcDbSpatialIndex
  3
ObjectDBX Classes
 90
    32768
280
     0
281
     0
  0
CLASS
  1
OBJECT_PTR
  2
CAseDLPNTableRecord
  3
"ASE-LPNTableRecord"
 90
    32769
280
     0
281
     0
  0
CLASS
  1
LAYOUT
  2
AcDbLayout
  3
ObjectDBX Classes
 90
        0
280
     0
281
     0
  0
CLASS
  1
PLOTSETTINGS
  2
AcDbPlotSettings
  3
ObjectDBX Classes
 90
    32768
280
     0
281
     0
  0
CLASS
  1
ACDBDICTIONARYWDFLT
  2
AcDbDictionaryWithDefault
  3
ObjectDBX Classes
 90
        0
280
     0
281
     0
  0
CLASS
  1
ACDBPLACEHOLDER
  2
AcDbPlaceHolder
  3
ObjectDBX Classes
 90
        0
280
     0
281
     0
  0
CLASS
  1
TABLESTYLE
  2
AcDbTableStyle
  3
ObjectDBX Classes
 90
     4095
280
     0
281
     0
  0
CLASS
  1
DIMASSOC
  2
AcDbDimAssoc
  3
"AcDbDimAssoc|Product Desc:     AcDim ARX App For Dimension|Company:          Autodesk, Inc.|WEB Address:      www.autodesk.com"
 90
    32768
280
     0
281
     0
  0
CLASS
  1
MATERIAL
  2
AcDbMaterial
  3
ObjectDBX Classes
 90
     1024
280
     0
281
     0
  0
CLASS
  1
VISUALSTYLE
  2
AcDbVisualStyle
  3
ObjectDBX Classes
 90
     4095
280
     0
281
     0
  0
ENDSEC
  0
SECTION
  2
TABLES
  0
TABLE
  2
VPORT
  5
7
102
{ACAD_XDICTIONARY
360
31D9F
102
}
330
0
100
AcDbSymbolTable
 70
     1
  0
VPORT
  5
31D80
330
7
100
AcDbSymbolTableRecord
100
AcDbViewportTableRecord
  2
*Active
 70
     0
 10
0.0
 20
0.0
 11
1.0
 21
1.0
 12
200713.7369385923
 22
11125.80539522656
 13
0.0
 23
0.0
 14
1.0
 24
1.0
 15
0.0
 25
0.0
 16
0.0
 26
0.0
 36
1.0
 17
0.0
 27
0.0
 37
0.0
 40
4499.107128630447
 41
1.435691318327974
 42
50.0
 43
0.0
 44
0.0
 50
0.0
 51
0.0
 71
     0
 72
   100
 73
     1
 74
     1
 75
     0
 76
     0
 77
     0
 78
     0
281
     0
 65
     0
110
0.0
120
0.0
130
0.0
111
1.0
121
0.0
131
0.0
112
0.0
122
1.0
132
0.0
 79
     0
146
0.0
  0
ENDTAB
  0
TABLE
  2
LTYPE
  5
4
330
0
100
AcDbSymbolTable
 70
    32
  0
LTYPE
  5
11
330
4
100
AcDbSymbolTableRecord
100
AcDbLinetypeTableRecord
  2
ByBlock
 70
     0
  3

 72
    65
 73
     0
 40
0.0
  0
LTYPE
  5
12
330
4
100
AcDbSymbolTableRecord
100
AcDbLinetypeTableRecord
  2
ByLayer
 70
     0
  3

 72
    65
 73
     0
 40
0.0
  0
LTYPE
  5
13
330
4
100
AcDbSymbolTableRecord
100
AcDbLinetypeTableRecord
  2
Continuous
 70
     0
  3
Solid line
 72
    65
 73
     0
 40
0.0
  0
LTYPE
  5
23
330
4
100
AcDbSymbolTableRecord
100
AcDbLinetypeTableRecord
  2
破線
 70
     0
  3
破線
 72
    65
 73
     2
 40
7.5
 49
6.0
 74
     0
 49
-1.5
 74
     0
  0
LTYPE
  5
24
330
4
100
AcDbSymbolTableRecord
100
AcDbLinetypeTableRecord
  2
跳び破線
 70
     0
  3
跳び破線
 72
    65
 73
     2
 40
12.0
 49
6.0
 74
     0
 49
-6.0
 74
     0
  0
LTYPE
  5
25
330
4
100
AcDbSymbolTableRecord
100
AcDbLinetypeTableRecord
  2
一点長鎖線
 70
     0
  3
一点長鎖線
 72
    65
 73
     4
 40
15.25
 49
12.0
 74
     0
 49
-1.5
 74
     0
 49
0.25
 74
     0
 49
-1.5
 74
     0
  0
LTYPE
  5
26
330
4
100
AcDbSymbolTableRecord
100
AcDbLinetypeTableRecord
  2
二点長鎖線
 70
     0
  3
二点長鎖線
 72
    65
 73
     6
 40
17.0
 49
12.0
 74
     0
 49
-1.5
 74
     0
 49
0.25
 74
     0
 49
-1.5
 74
     0
 49
0.25
 74
     0
 49
-1.5
 74
     0
  0
LTYPE
  5
27
330
4
100
AcDbSymbolTableRecord
100
AcDbLinetypeTableRecord
  2
三点長鎖線
 70
     0
  3
三点長鎖線
 72
    65
 73
     8
 40
18.75
 49
12.0
 74
     0
 49
-1.5
 74
     0
 49
0.25
 74
     0
 49
-1.5
 74
     0
 49
0.25
 74
     0
 49
-1.5
 74
     0
 49
0.25
 74
     0
 49
-1.5
 74
     0
  0
LTYPE
  5
28
330
4
100
AcDbSymbolTableRecord
100
AcDbLinetypeTableRecord
  2
点線
 70
     0
  3
点線
 72
    65
 73
     2
 40
1.75
 49
0.25
 74
     0
 49
-1.5
 74
     0
  0
LTYPE
  5
29
330
4
100
AcDbSymbolTableRecord
100
AcDbLinetypeTableRecord
  2
一点鎖線
 70
     0
  3
一点鎖線
 72
    65
 73
     4
 40
18.5
 49
12.0
 74
     0
 49
-1.5
 74
     0
 49
3.5
 74
     0
 49
-1.5
 74
     0
  0
LTYPE
  5
2A
330
4
100
AcDbSymbolTableRecord
100
AcDbLinetypeTableRecord
  2
二点鎖線
 70
     0
  3
二点鎖線
 72
    65
 73
     6
 40
23.5
 49
12.0
 74
     0
 49
-1.5
 74
     0
 49
3.5
 74
     0
 49
-1.5
 74
     0
 49
3.5
 74
     0
 49
-1.5
 74
     0
  0
LTYPE
  5
2B
330
4
100
AcDbSymbolTableRecord
100
AcDbLinetypeTableRecord
  2
一点短鎖線
 70
     0
  3
一点短鎖線
 72
    65
 73
     4
 40
9.25
 49
6.0
 74
     0
 49
-1.5
 74
     0
 49
0.25
 74
     0
 49
-1.5
 74
     0
  0
LTYPE
  5
2C
330
4
100
AcDbSymbolTableRecord
100
AcDbLinetypeTableRecord
  2
一点二短鎖線
 70
     0
  3
一点二短鎖線
 72
    65
 73
     6
 40
16.75
 49
6.0
 74
     0
 49
-1.5
 74
     0
 49
6.0
 74
     0
 49
-1.5
 74
     0
 49
0.25
 74
     0
 49
-1.5
 74
     0
  0
LTYPE
  5
2D
330
4
100
AcDbSymbolTableRecord
100
AcDbLinetypeTableRecord
  2
二点短鎖線
 70
     0
  3
二点短鎖線
 72
    65
 73
     6
 40
11.0
 49
6.0
 74
     0
 49
-1.5
 74
     0
 49
0.25
 74
     0
 49
-1.5
 74
     0
 49
0.25
 74
     0
 49
-1.5
 74
     0
  0
LTYPE
  5
2E
330
4
100
AcDbSymbolTableRecord
100
AcDbLinetypeTableRecord
  2
二点二短鎖線
 70
     0
  3
二点二短鎖線
 72
    65
 73
     8
 40
18.5
 49
6.0
 74
     0
 49
-1.5
 74
     0
 49
6.0
 74
     0
 49
-1.5
 74
     0
 49
0.25
 74
     0
 49
-1.5
 74
     0
 49
0.25
 74
     0
 49
-1.5
 74
     0
  0
LTYPE
  5
2F
330
4
100
AcDbSymbolTableRecord
100
AcDbLinetypeTableRecord
  2
三点短鎖線
 70
     0
  3
三点短鎖線
 72
    65
 73
     8
 40
12.75
 49
6.0
 74
     0
 49
-1.5
 74
     0
 49
0.25
 74
     0
 49
-1.5
 74
     0
 49
0.25
 74
     0
 49
-1.5
 74
     0
 49
0.25
 74
     0
 49
-1.5
 74
     0
  0
LTYPE
  5
30
330
4
100
AcDbSymbolTableRecord
100
AcDbLinetypeTableRecord
  2
三点二短鎖線
 70
     0
  3
三点二短鎖線
 72
    65
 73
    10
 40
20.25
 49
6.0
 74
     0
 49
-1.5
 74
     0
 49
6.0
 74
     0
 49
-1.5
 74
     0
 49
0.25
 74
     0
 49
-1.5
 74
     0
 49
0.25
 74
     0
 49
-1.5
 74
     0
 49
0.25
 74
     0
 49
-1.5
 74
     0
  0
LTYPE
  5
31
330
4
100
AcDbSymbolTableRecord
100
AcDbLinetypeTableRecord
  2
点線(長)
 70
     0
  3
点線(長)
 72
    65
 73
     2
 40
8.0
 49
4.0
 74
     0
 49
-4.0
 74
     0
  0
LTYPE
  5
32
330
4
100
AcDbSymbolTableRecord
100
AcDbLinetypeTableRecord
  2
点線(中)
 70
     0
  3
点線(中)
 72
    65
 73
     2
 40
4.0
 49
2.0
 74
     0
 49
-2.0
 74
     0
  0
LTYPE
  5
33
330
4
100
AcDbSymbolTableRecord
100
AcDbLinetypeTableRecord
  2
点線(短)
 70
     0
  3
点線(短)
 72
    65
 73
     2
 40
2.0
 49
1.0
 74
     0
 49
-1.0
 74
     0
  0
LTYPE
  5
34
330
4
100
AcDbSymbolTableRecord
100
AcDbLinetypeTableRecord
  2
破線(長)
 70
     0
  3
破線(長)
 72
    65
 73
     2
 40
16.0
 49
8.0
 74
     0
 49
-8.0
 74
     0
  0
LTYPE
  5
35
330
4
100
AcDbSymbolTableRecord
100
AcDbLinetypeTableRecord
  2
破線(中)
 70
     0
  3
破線(中)
 72
    65
 73
     2
 40
8.0
 49
4.0
 74
     0
 49
-4.0
 74
     0
  0
LTYPE
  5
36
330
4
100
AcDbSymbolTableRecord
100
AcDbLinetypeTableRecord
  2
破線(短)
 70
     0
  3
破線(短)
 72
    65
 73
     2
 40
4.0
 49
2.0
 74
     0
 49
-2.0
 74
     0
  0
LTYPE
  5
37
330
4
100
AcDbSymbolTableRecord
100
AcDbLinetypeTableRecord
  2
一点鎖線(長)
 70
     0
  3
一点鎖線(長)
 72
    65
 73
     4
 40
26.0
 49
20.0
 74
     0
 49
-2.0
 74
     0
 49
2.0
 74
     0
 49
-2.0
 74
     0
  0
LTYPE
  5
38
330
4
100
AcDbSymbolTableRecord
100
AcDbLinetypeTableRecord
  2
一点鎖線(中)
 70
     0
  3
一点鎖線(中)
 72
    65
 73
     4
 40
23.0
 49
20.0
 74
     0
 49
-1.0
 74
     0
 49
1.0
 74
     0
 49
-1.0
 74
     0
  0
LTYPE
  5
39
330
4
100
AcDbSymbolTableRecord
100
AcDbLinetypeTableRecord
  2
一点鎖線(短)
 70
     0
  3
一点鎖線(短)
 72
    65
 73
     4
 40
13.0
 49
10.0
 74
     0
 49
-1.0
 74
     0
 49
1.0
 74
     0
 49
-1.0
 74
     0
  0
LTYPE
  5
3A
330
4
100
AcDbSymbolTableRecord
100
AcDbLinetypeTableRecord
  2
二点鎖線(長)
 70
     0
  3
二点鎖線(長)
 72
    65
 73
     6
 40
30.0
 49
20.0
 74
     0
 49
-2.0
 74
     0
 49
2.0
 74
     0
 49
-2.0
 74
     0
 49
2.0
 74
     0
 49
-2.0
 74
     0
  0
LTYPE
  5
3B
330
4
100
AcDbSymbolTableRecord
100
AcDbLinetypeTableRecord
  2
二点鎖線(中)
 70
     0
  3
二点鎖線(中)
 72
    65
 73
     6
 40
25.0
 49
20.0
 74
     0
 49
-1.0
 74
     0
 49
1.0
 74
     0
 49
-1.0
 74
     0
 49
1.0
 74
     0
 49
-1.0
 74
     0
  0
LTYPE
  5
3C
330
4
100
AcDbSymbolTableRecord
100
AcDbLinetypeTableRecord
  2
二点鎖線(短)
 70
     0
  3
二点鎖線(短)
 72
    65
 73
     6
 40
15.0
 49
10.0
 74
     0
 49
-1.0
 74
     0
 49
1.0
 74
     0
 49
-1.0
 74
     0
 49
1.0
 74
     0
 49
-1.0
 74
     0
  0
LTYPE
  5
3D
330
4
100
AcDbSymbolTableRecord
100
AcDbLinetypeTableRecord
  2
一点鎖線(4)
 70
     0
  3
一点鎖線(4)
 72
    65
 73
     4
 40
18.5
 49
12.0
 74
     0
 49
-1.5
 74
     0
 49
3.5
 74
     0
 49
-1.5
 74
     0
  0
LTYPE
  5
41
330
4
100
AcDbSymbolTableRecord
100
AcDbLinetypeTableRecord
  2
１点鎖線
 70
     0
  3
１点鎖線
 72
    65
 73
     4
 40
33.75
 49
22.5
 74
     0
 49
-3.75
 74
     0
 49
3.75
 74
     0
 49
-3.75
 74
     0
  0
LTYPE
  5
42
330
4
100
AcDbSymbolTableRecord
100
AcDbLinetypeTableRecord
  2
２点鎖線
 70
     0
  3
２点鎖線
 72
    65
 73
     6
 40
37.5
 49
18.75
 74
     0
 49
-3.75
 74
     0
 49
3.75
 74
     0
 49
-3.75
 74
     0
 49
3.75
 74
     0
 49
-3.75
 74
     0
  0
LTYPE
  5
43
330
4
100
AcDbSymbolTableRecord
100
AcDbLinetypeTableRecord
  2
DOT
 70
     0
  3
DOT
 72
    65
 73
     2
 40
5.009999999999999
 49
0.01
 74
     0
 49
-5.0
 74
     0
  0
LTYPE
  5
E7
330
4
100
AcDbSymbolTableRecord
100
AcDbLinetypeTableRecord
  2
ACAD_ISO08W100
 70
     0
  3
ACAD_ISO08W100
 72
    65
 73
     4
 40
0.36
 49
0.24
 74
     0
 49
-0.03
 74
     0
 49
0.06
 74
     0
 49
-0.03
 74
     0
  0
ENDTAB
  0
TABLE
  2
LAYER
  5
2
102
{ACAD_XDICTIONARY
360
891
102
}
330
0
100
AcDbSymbolTable
 70
    19
  0
LAYER
  5
14
330
2
100
AcDbSymbolTableRecord
100
AcDbLayerTableRecord
  2
0
 70
     0
 62
     7
  6
Continuous
370
    -3
390
1D
  0
LAYER
  5
750
330
2
100
AcDbSymbolTableRecord
100
AcDbLayerTableRecord
  2
D-TTL-FRAM　タイトル枠、凡例図枠
 70
     0
 62
     2
  6
Continuous
370
    50
390
1D
  0
LAYER
  5
751
330
2
100
AcDbSymbolTableRecord
100
AcDbLayerTableRecord
  2
D-TTL　外枠
 70
     0
 62
     2
  6
Continuous
370
   140
390
1D
  0
LAYER
  5
757
330
2
100
AcDbSymbolTableRecord
100
AcDbLayerTableRecord
  2
D-STR-HTXT　旗上げ
 70
     0
 62
     7
  6
Continuous
370
    13
390
1D
  0
LAYER
  5
758
330
2
100
AcDbSymbolTableRecord
100
AcDbLayerTableRecord
  2
D-STR-TXT　文字列
 70
     0
 62
     7
  6
Continuous
370
    13
390
1D
  0
LAYER
  5
759
330
2
100
AcDbSymbolTableRecord
100
AcDbLayerTableRecord
  2
D-STR-DIM　寸法線、寸法値
 70
     0
 62
     7
  6
Continuous
370
    13
390
1D
  0
LAYER
  5
75A
330
2
100
AcDbSymbolTableRecord
100
AcDbLayerTableRecord
  2
D-STR　構造物外形線
 70
     0
 62
     1
  6
Continuous
370
    25
390
1D
  0
LAYER
  5
881
330
2
100
AcDbSymbolTableRecord
100
AcDbLayerTableRecord
  2
Defpoints
 70
     0
 62
     7
  6
Continuous
290
     0
370
    -3
390
1D
  0
LAYER
  5
FFE
102
{ACAD_XDICTIONARY
360
FFF
102
}
330
2
100
AcDbSymbolTableRecord
100
AcDbLayerTableRecord
  2
D-TTL-LINE　区切り線、罫線
 70
     0
 62
     7
  6
Continuous
370
    25
390
1D
  0
LAYER
  5
1001
102
{ACAD_XDICTIONARY
360
1002
102
}
330
2
100
AcDbSymbolTableRecord
100
AcDbLayerTableRecord
  2
D-TTL-TXT　文字列
 70
     0
 62
     7
  6
Continuous
370
    13
390
1D
  0
LAYER
  5
1019
102
{ACAD_XDICTIONARY
360
101A
102
}
330
2
100
AcDbSymbolTableRecord
100
AcDbLayerTableRecord
  2
D-BMK　構造物基準線(中心線等)
 70
     0
 62
     2
  6
ACAD_ISO08W100
370
    13
390
1D
1001
AcAecLayerStandard
1000

1000

  0
LAYER
  5
1DC34
102
{ACAD_XDICTIONARY
360
1DC35
102
}
330
2
100
AcDbSymbolTableRecord
100
AcDbLayerTableRecord
  2
D-BGD　既設構造物等(基礎材)
 70
     0
 62
     7
  6
Continuous
370
    13
390
1D
1001
AcAecLayerStandard
1000

1000

  0
LAYER
  5
1DC37
102
{ACAD_XDICTIONARY
360
1DC38
102
}
330
2
100
AcDbSymbolTableRecord
100
AcDbLayerTableRecord
  2
D-MTR　材料表タイトル
 70
     0
 62
     7
  6
Continuous
370
    13
390
1D
1001
AcAecLayerStandard
1000

1000

  0
LAYER
  5
1DC3A
102
{ACAD_XDICTIONARY
360
1DC3B
102
}
330
2
100
AcDbSymbolTableRecord
100
AcDbLayerTableRecord
  2
D-MTR-FRAM　材料表図枠
 70
     0
 62
     7
  6
Continuous
370
    50
390
1D
1001
AcAecLayerStandard
1000

1000

  0
LAYER
  5
1DC3D
102
{ACAD_XDICTIONARY
360
1DC3E
102
}
330
2
100
AcDbSymbolTableRecord
100
AcDbLayerTableRecord
  2
D-MTR-TXT　文字列、数量表示文字列
 70
     0
 62
     7
  6
Continuous
370
    13
390
1D
1001
AcAecLayerStandard
1000

1000

  0
LAYER
  5
1DC40
102
{ACAD_XDICTIONARY
360
1DC41
102
}
330
2
100
AcDbSymbolTableRecord
100
AcDbLayerTableRecord
  2
D-DOC　文章(説明、指示、参照事項等)
 70
     0
 62
     7
  6
Continuous
370
    13
390
1D
1001
AcAecLayerStandard
1000

1000

  0
LAYER
  5
1DC43
102
{ACAD_XDICTIONARY
360
1DC44
102
}
330
2
100
AcDbSymbolTableRecord
100
AcDbLayerTableRecord
  2
D-MTR-LINE　区切り線、罫線
 70
     0
 62
     7
  6
Continuous
370
    25
390
1D
1001
AcAecLayerStandard
1000

1000

  0
LAYER
  5
1DC46
330
2
100
AcDbSymbolTableRecord
100
AcDbLayerTableRecord
  2
D-DCR-HCH　ハッチ
 70
     0
 62
    30
  6
Continuous
370
    13
390
1D
  0
LAYER
  5
2FD8A
330
2
100
AcDbSymbolTableRecord
100
AcDbLayerTableRecord
  2
LAYER12
 70
     0
 62
     6
  6
Continuous
370
    -3
390
1D
  0
ENDTAB
  0
TABLE
  2
STYLE
  5
3
330
0
100
AcDbSymbolTable
 70
     6
  0
STYLE
  5
17
330
3
100
AcDbSymbolTableRecord
100
AcDbTextStyleTableRecord
  2
Standard
 70
     0
 40
0.0
 41
1.0
 50
0.0
 71
     0
 42
0.0
  3
txt
  4

  0
STYLE
  5
762
330
3
100
AcDbSymbolTableRecord
100
AcDbTextStyleTableRecord
  2
YOKO
 70
     0
 40
0.0
 41
1.0
 50
0.0
 71
     0
 42
0.0
  3
monotxt
  4
bigfont
  0
STYLE
  5
763
330
3
100
AcDbSymbolTableRecord
100
AcDbTextStyleTableRecord
  2
YOKO_MINCHO
 70
     0
 40
0.0
 41
1.0
 50
0.0
 71
     0
 42
0.0
  3

  4

1001
ACAD
1000
MS Mincho
1071
    32785
  0
STYLE
  5
764
330
3
100
AcDbSymbolTableRecord
100
AcDbTextStyleTableRecord
  2
YOKO_GOTHIC
 70
     0
 40
0.0
 41
1.0
 50
0.0
 71
     0
 42
0.2
  3

  4

1001
ACAD
1000
MS Gothic
1071
    32817
  0
STYLE
  5
765
330
3
100
AcDbSymbolTableRecord
100
AcDbTextStyleTableRecord
  2
YOKO_PMINCHO
 70
     0
 40
0.0
 41
1.0
 50
0.0
 71
     0
 42
0.0
  3

  4

1001
ACAD
1000
MS PMincho
1071
    32786
  0
STYLE
  5
766
330
3
100
AcDbSymbolTableRecord
100
AcDbTextStyleTableRecord
  2
YOKO_PGOTHIC
 70
     0
 40
0.0
 41
1.0
 50
0.0
 71
     0
 42
0.0
  3

  4

1001
ACAD
1000
MS PGothic
1071
    32818
  0
ENDTAB
  0
TABLE
  2
VIEW
  5
5
330
0
100
AcDbSymbolTable
 70
     0
  0
ENDTAB
  0
TABLE
  2
UCS
  5
6
330
0
100
AcDbSymbolTable
 70
     0
  0
ENDTAB
  0
TABLE
  2
APPID
  5
8
330
0
100
AcDbSymbolTable
 70
    15
  0
APPID
  5
16
330
8
100
AcDbSymbolTableRecord
100
AcDbRegAppTableRecord
  2
ACAD
 70
     0
  0
APPID
  5
7D0
330
8
100
AcDbSymbolTableRecord
100
AcDbRegAppTableRecord
  2
ACAD_DSTYLE_DIMTEXT_FILL
 70
     0
  0
APPID
  5
895
330
8
100
AcDbSymbolTableRecord
100
AcDbRegAppTableRecord
  2
AcAecLayerStandard
 70
     0
  0
APPID
  5
8B8
330
8
100
AcDbSymbolTableRecord
100
AcDbRegAppTableRecord
  2
ACAD_PSEXT
 70
     0
  0
APPID
  5
102E
330
8
100
AcDbSymbolTableRecord
100
AcDbRegAppTableRecord
  2
ACAD_DSTYLE_DIMEXT_LENGTH
 70
     0
  0
APPID
  5
102F
330
8
100
AcDbSymbolTableRecord
100
AcDbRegAppTableRecord
  2
ACAD_DSTYLE_DIMJOGGED_JOGANGLE_SYMBOL
 70
     0
  0
APPID
  5
1030
330
8
100
AcDbSymbolTableRecord
100
AcDbRegAppTableRecord
  2
ACAD_DSTYLE_DIM_LINETYPE
 70
     0
  0
APPID
  5
1031
330
8
100
AcDbSymbolTableRecord
100
AcDbRegAppTableRecord
  2
ACAD_DSTYLE_DIM_EXT1_LINETYPE
 70
     0
  0
APPID
  5
1032
330
8
100
AcDbSymbolTableRecord
100
AcDbRegAppTableRecord
  2
ACAD_DSTYLE_DIM_EXT2_LINETYPE
 70
     0
  0
APPID
  5
1033
330
8
100
AcDbSymbolTableRecord
100
AcDbRegAppTableRecord
  2
ACAD_DSTYLE_DIMJAG
 70
     0
  0
APPID
  5
1034
330
8
100
AcDbSymbolTableRecord
100
AcDbRegAppTableRecord
  2
ACAD_DSTYLE_DIMBREAK
 70
     0
  0
APPID
  5
1035
330
8
100
AcDbSymbolTableRecord
100
AcDbRegAppTableRecord
  2
ACAD_DSTYLE_DIMTALN
 70
     0
  0
APPID
  5
A2FB
330
8
100
AcDbSymbolTableRecord
100
AcDbRegAppTableRecord
  2
RAK
 70
     0
  0
APPID
  5
EC7F
330
8
100
AcDbSymbolTableRecord
100
AcDbRegAppTableRecord
  2
GENIUS_GENODEF_13
 70
     0
  0
APPID
  5
EC80
330
8
100
AcDbSymbolTableRecord
100
AcDbRegAppTableRecord
  2
GENIUS_GENOBJ-N-FIL_13
 70
     0
  0
ENDTAB
  0
TABLE
  2
DIMSTYLE
  5
9
330
0
100
AcDbSymbolTable
 70
    14
100
AcDbDimStyleTable
 71
     6
340
B41
340
7AF
340
7B0
340
7AD
340
7AE
340
7AC
  0
DIMSTYLE
105
7AC
330
9
100
AcDbSymbolTableRecord
100
AcDbDimStyleTableRecord
  2
Vnas
 70
     0
 73
     0
 74
     0
 77
     1
173
     1
340
762
  0
DIMSTYLE
105
7AD
330
9
100
AcDbSymbolTableRecord
100
AcDbDimStyleTableRecord
  2
Vnas_Mincho
 70
     0
 73
     0
 74
     0
 77
     1
173
     1
340
763
  0
DIMSTYLE
105
7AE
330
9
100
AcDbSymbolTableRecord
100
AcDbDimStyleTableRecord
  2
Vnas_Gothic
 70
     0
 73
     0
 74
     0
 77
     1
173
     1
340
764
  0
DIMSTYLE
105
7AF
330
9
100
AcDbSymbolTableRecord
100
AcDbDimStyleTableRecord
  2
Vnas_PMincho
 70
     0
 73
     0
 74
     0
 77
     1
173
     1
340
765
  0
DIMSTYLE
105
7B0
330
9
100
AcDbSymbolTableRecord
100
AcDbDimStyleTableRecord
  2
Vnas_PGothic
 70
     0
 73
     0
 74
     0
 77
     1
173
     1
340
766
  0
DIMSTYLE
105
8E5
330
9
100
AcDbSymbolTableRecord
100
AcDbDimStyleTableRecord
  2
1-30
 70
     0
 40
30.0
 41
0.5
 42
1.6
 44
1.199999999999999
 73
     0
 74
     0
 77
     1
 78
     8
 79
     2
140
2.5
147
0.8877599999999999
172
     1
174
     1
175
     1
271
     1
272
     1
278
     0
340
764
341
78C
342
775
  0
DIMSTYLE
105
A03
330
9
100
AcDbSymbolTableRecord
100
AcDbDimStyleTableRecord
  2
1-10
 70
     0
 40
10.0
 41
0.5
 42
1.6
 44
1.199999999999999
 73
     0
 74
     0
 77
     1
 78
     8
 79
     2
140
2.5
147
0.8877599999999999
172
     1
174
     1
175
     1
271
     1
272
     1
278
     0
340
764
341
78C
342
775
  0
DIMSTYLE
105
ACF
330
9
100
AcDbSymbolTableRecord
100
AcDbDimStyleTableRecord
  2
1-20
 70
     0
 40
20.0
 41
3.0
 42
1.6
 44
1.199999999999999
 73
     0
 74
     0
 77
     1
 78
     8
 79
     2
140
2.5
147
0.8877599999999999
172
     1
174
     1
175
     1
271
     1
272
     1
278
     0
340
764
341
78C
342
CFB
  0
DIMSTYLE
105
B41
330
9
100
AcDbSymbolTableRecord
100
AcDbDimStyleTableRecord
  2
1-40
 70
     0
 40
40.0
 41
3.0
 42
1.6
 44
1.199999999999999
 73
     0
 74
     0
 77
     1
 78
     8
 79
     2
140
2.5
147
0.8877599999999999
172
     1
174
     1
175
     1
271
     1
272
     1
278
     0
340
764
341
78C
342
CFB
  0
DIMSTYLE
105
BA3
330
9
100
AcDbSymbolTableRecord
100
AcDbDimStyleTableRecord
  2
1-50
 70
     0
 40
50.0
 41
3.0
 42
1.6
 44
1.199999999999999
 73
     0
 74
     0
 77
     1
 78
     8
 79
     2
140
2.5
147
0.8877599999999999
172
     1
174
     1
175
     1
271
     1
272
     1
278
     0
340
764
341
78C
342
CFB
  0
DIMSTYLE
105
3861
330
9
100
AcDbSymbolTableRecord
100
AcDbDimStyleTableRecord
  2
Standard
 70
     0
340
17
  0
DIMSTYLE
105
24E8C
330
9
100
AcDbSymbolTableRecord
100
AcDbDimStyleTableRecord
  2
1-20$2
 70
     0
 40
20.0
 41
3.0
 42
1.6
 44
1.199999999999999
 73
     0
 74
     0
 77
     1
 78
     8
 79
     2
140
2.5
147
0.8877599999999999
172
     1
174
     1
175
     1
271
     1
272
     1
278
     0
340
764
341
78C
342
78C
  0
DIMSTYLE
105
288F0
330
9
100
AcDbSymbolTableRecord
100
AcDbDimStyleTableRecord
  2
1-30$4
 70
     0
 40
30.0
 41
3.0
 42
1.6
 44
1.199999999999999
 73
     0
 74
     0
 77
     1
 78
     8
 79
     2
140
2.5
147
0.8877599999999999
172
     1
173
     1
174
     1
175
     1
271
     1
272
     1
278
     0
340
764
341
78C
343
CFB
344
78C
  0
DIMSTYLE
105
30952
102
{ACAD_REACTORS
330
30CE8
330
30CE9
330
30CEA
330
30CEB
330
30CEC
330
30CED
330
30CEE
330
30CEF
330
30CF0
330
30CF1
330
30CF2
330
30CF3
330
30CF4
330
30CF5
330
30CF6
330
30CF7
330
30CF8
330
30CF9
330
30CFA
330
30CFB
330
30CFC
330
30CFD
330
30CFE
330
30CFF
330
30D00
330
30D01
330
30D02
330
30D03
330
30D04
330
30D05
330
30D06
330
30D07
330
30D08
330
30D09
330
30D0A
330
30D0B
330
30D0C
102
}
330
9
100
AcDbSymbolTableRecord
100
AcDbDimStyleTableRecord
  2
1-15
 70
     0
 40
15.0
 41
3.0
 42
1.6
 44
1.199999999999999
 73
     0
 74
     0
 77
     1
 78
     8
 79
     2
140
2.5
147
0.8877599999999999
172
     1
174
     1
175
     1
271
     1
272
     1
278
     0
340
764
341
78C
342
CFB
  0
ENDTAB
  0
TABLE
  2
BLOCK_RECORD
  5
1
330
0
100
AcDbSymbolTable
 70
    43
  0
BLOCK_RECORD
  5
A
102
{ACAD_XDICTIONARY
360
C53
102
}
330
1
100
AcDbSymbolTableRecord
100
AcDbBlockTableRecord
  2
*MODEL_SPACE
340
20
  0
BLOCK_RECORD
  5
B
330
1
100
AcDbSymbolTableRecord
100
AcDbBlockTableRecord
  2
*PAPER_SPACE
340
21
  0
BLOCK_RECORD
  5
775
330
1
100
AcDbSymbolTableRecord
100
AcDbBlockTableRecord
  2
_DOT
340
0
  0
BLOCK_RECORD
  5
78C
330
1
100
AcDbSymbolTableRecord
100
AcDbBlockTableRecord
  2
_OPEN30
340
0
  0
BLOCK_RECORD
  5
CFB
330
1
100
AcDbSymbolTableRecord
100
AcDbBlockTableRecord
  2
_DotSmall
340
0
102
{BLKREFS
331
31006
331
31007
331
3100F
331
31010
331
31018
331
31019
331
31021
331
31022
331
3102A
331
3102B
331
31033
331
31034
331
3103C
331
3103D
331
31045
331
31046
331
3104E
331
3104F
331
31057
331
31058
331
31060
331
31061
331
31069
331
3106A
331
31072
331
31073
331
3107B
331
3107C
331
31084
331
31085
331
3108D
331
3108E
331
31096
331
31097
331
3109F
331
310A0
331
310A8
331
310A9
331
310B1
331
310B2
331
310BA
331
310BB
331
310C3
331
310C4
331
310CC
331
310CD
331
310D5
331
310D6
331
310DE
331
310DF
331
310E7
331
310E8
331
310F0
331
310F1
331
310F9
331
310FA
331
31102
331
31103
331
3110B
331
3110C
331
31122
331
31123
331
3112B
331
3112C
331
31142
331
31143
102
}
  0
BLOCK_RECORD
  5
249E1
102
{ACAD_XDICTIONARY
360
249E2
102
}
330
1
100
AcDbSymbolTableRecord
100
AcDbBlockTableRecord
  2
A$C0B7D5268
340
0
102
{BLKREFS
331
266CC
102
}
  0
BLOCK_RECORD
  5
29629
330
1
100
AcDbSymbolTableRecord
100
AcDbBlockTableRecord
  2
_None
340
0
  0
BLOCK_RECORD
  5
2FB91
330
1
100
AcDbSymbolTableRecord
100
AcDbBlockTableRecord
  2
AS-400
340
0
  0
BLOCK_RECORD
  5
30E4F
330
1
100
AcDbSymbolTableRecord
100
AcDbBlockTableRecord
  2
*D6
340
0
  0
BLOCK_RECORD
  5
30E5B
330
1
100
AcDbSymbolTableRecord
100
AcDbBlockTableRecord
  2
*D7
340
0
  0
BLOCK_RECORD
  5
30E67
330
1
100
AcDbSymbolTableRecord
100
AcDbBlockTableRecord
  2
*D8
340
0
  0
BLOCK_RECORD
  5
30E73
330
1
100
AcDbSymbolTableRecord
100
AcDbBlockTableRecord
  2
*D9
340
0
  0
BLOCK_RECORD
  5
30E7F
330
1
100
AcDbSymbolTableRecord
100
AcDbBlockTableRecord
  2
*D10
340
0
  0
BLOCK_RECORD
  5
30E8B
330
1
100
AcDbSymbolTableRecord
100
AcDbBlockTableRecord
  2
*D11
340
0
  0
BLOCK_RECORD
  5
30E97
330
1
100
AcDbSymbolTableRecord
100
AcDbBlockTableRecord
  2
*D12
340
0
  0
BLOCK_RECORD
  5
30EA3
330
1
100
AcDbSymbolTableRecord
100
AcDbBlockTableRecord
  2
*D13
340
0
  0
BLOCK_RECORD
  5
30EAF
330
1
100
AcDbSymbolTableRecord
100
AcDbBlockTableRecord
  2
*D14
340
0
  0
BLOCK_RECORD
  5
30EBB
330
1
100
AcDbSymbolTableRecord
100
AcDbBlockTableRecord
  2
*D15
340
0
  0
BLOCK_RECORD
  5
30EC7
330
1
100
AcDbSymbolTableRecord
100
AcDbBlockTableRecord
  2
*D16
340
0
  0
BLOCK_RECORD
  5
30ED3
330
1
100
AcDbSymbolTableRecord
100
AcDbBlockTableRecord
  2
*D17
340
0
  0
BLOCK_RECORD
  5
30EDF
330
1
100
AcDbSymbolTableRecord
100
AcDbBlockTableRecord
  2
*D18
340
0
  0
BLOCK_RECORD
  5
30EEB
330
1
100
AcDbSymbolTableRecord
100
AcDbBlockTableRecord
  2
*D19
340
0
  0
BLOCK_RECORD
  5
30EF7
330
1
100
AcDbSymbolTableRecord
100
AcDbBlockTableRecord
  2
*D20
340
0
  0
BLOCK_RECORD
  5
30F03
330
1
100
AcDbSymbolTableRecord
100
AcDbBlockTableRecord
  2
*D21
340
0
  0
BLOCK_RECORD
  5
30F0F
330
1
100
AcDbSymbolTableRecord
100
AcDbBlockTableRecord
  2
*D22
340
0
  0
BLOCK_RECORD
  5
30F1B
330
1
100
AcDbSymbolTableRecord
100
AcDbBlockTableRecord
  2
*D23
340
0
  0
BLOCK_RECORD
  5
30F27
330
1
100
AcDbSymbolTableRecord
100
AcDbBlockTableRecord
  2
*D24
340
0
  0
BLOCK_RECORD
  5
30F33
330
1
100
AcDbSymbolTableRecord
100
AcDbBlockTableRecord
  2
*D25
340
0
  0
BLOCK_RECORD
  5
30F3F
330
1
100
AcDbSymbolTableRecord
100
AcDbBlockTableRecord
  2
*D26
340
0
  0
BLOCK_RECORD
  5
30F4B
330
1
100
AcDbSymbolTableRecord
100
AcDbBlockTableRecord
  2
*D27
340
0
  0
BLOCK_RECORD
  5
30F57
330
1
100
AcDbSymbolTableRecord
100
AcDbBlockTableRecord
  2
*D28
340
0
  0
BLOCK_RECORD
  5
30F63
330
1
100
AcDbSymbolTableRecord
100
AcDbBlockTableRecord
  2
*D29
340
0
  0
BLOCK_RECORD
  5
30F6F
330
1
100
AcDbSymbolTableRecord
100
AcDbBlockTableRecord
  2
*D30
340
0
  0
BLOCK_RECORD
  5
30F7B
330
1
100
AcDbSymbolTableRecord
100
AcDbBlockTableRecord
  2
*D31
340
0
  0
BLOCK_RECORD
  5
30F87
330
1
100
AcDbSymbolTableRecord
100
AcDbBlockTableRecord
  2
*D32
340
0
  0
BLOCK_RECORD
  5
30F93
330
1
100
AcDbSymbolTableRecord
100
AcDbBlockTableRecord
  2
*D33
340
0
  0
BLOCK_RECORD
  5
30F9F
330
1
100
AcDbSymbolTableRecord
100
AcDbBlockTableRecord
  2
*D34
340
0
  0
BLOCK_RECORD
  5
30FAB
330
1
100
AcDbSymbolTableRecord
100
AcDbBlockTableRecord
  2
*D35
340
0
  0
BLOCK_RECORD
  5
30FB7
330
1
100
AcDbSymbolTableRecord
100
AcDbBlockTableRecord
  2
*D36
340
0
  0
BLOCK_RECORD
  5
30FC1
330
1
100
AcDbSymbolTableRecord
100
AcDbBlockTableRecord
  2
*D37
340
0
  0
BLOCK_RECORD
  5
30FCB
330
1
100
AcDbSymbolTableRecord
100
AcDbBlockTableRecord
  2
*D38
340
0
  0
BLOCK_RECORD
  5
30FD7
330
1
100
AcDbSymbolTableRecord
100
AcDbBlockTableRecord
  2
*D39
340
0
  0
BLOCK_RECORD
  5
30FE3
330
1
100
AcDbSymbolTableRecord
100
AcDbBlockTableRecord
  2
*D40
340
0
  0
BLOCK_RECORD
  5
30FED
330
1
100
AcDbSymbolTableRecord
100
AcDbBlockTableRecord
  2
*D41
340
0
  0
BLOCK_RECORD
  5
30FF7
330
1
100
AcDbSymbolTableRecord
100
AcDbBlockTableRecord
  2
*D42
340
0
  0
ENDTAB
  0
ENDSEC
  0
SECTION
  2
BLOCKS
  0
BLOCK
  5
D
330
A
100
AcDbEntity
  8
0
100
AcDbBlockBegin
  2
*MODEL_SPACE
 70
     0
 10
0.0
 20
0.0
 30
0.0
  3
*MODEL_SPACE
  1

  0
ENDBLK
  5
E
330
A
100
AcDbEntity
  8
0
100
AcDbBlockEnd
  0
BLOCK
  5
F
330
B
100
AcDbEntity
 67
     1
  8
0
100
AcDbBlockBegin
  2
*PAPER_SPACE
 70
     0
 10
0.0
 20
0.0
 30
0.0
  3
*PAPER_SPACE
  1

  0
ENDBLK
  5
10
330
B
100
AcDbEntity
 67
     1
  8
0
100
AcDbBlockEnd
  0
BLOCK
  5
776
330
775
100
AcDbEntity
  8
0
100
AcDbBlockBegin
  2
_DOT
 70
     0
 10
0.0
 20
0.0
 30
0.0
  3
_DOT
  1

  0
POLYLINE
  5
777
330
775
100
AcDbEntity
  8
0
  6
ByBlock
 62
     0
370
    -2
100
AcDb2dPolyline
 66
     1
 10
0.0
 20
0.0
 30
0.0
 70
     1
 40
0.5
 41
0.5
  0
VERTEX
  5
778
330
777
100
AcDbEntity
  8
0
  6
ByBlock
 62
     0
370
    -2
100
AcDbVertex
100
AcDb2dVertex
 10
-0.25
 20
0.0
 30
0.0
 42
1.0
  0
VERTEX
  5
779
330
777
100
AcDbEntity
  8
0
  6
ByBlock
 62
     0
370
    -2
100
AcDbVertex
100
AcDb2dVertex
 10
0.25
 20
0.0
 30
0.0
 42
1.0
  0
SEQEND
  5
77A
330
777
100
AcDbEntity
  8
0
  0
LINE
  5
77B
330
775
100
AcDbEntity
  8
0
  6
ByBlock
 62
     0
370
    -2
100
AcDbLine
 10
-0.5
 20
0.0
 30
0.0
 11
-1.0
 21
0.0
 31
0.0
  0
ENDBLK
  5
77C
330
775
100
AcDbEntity
  8
0
100
AcDbBlockEnd
  0
BLOCK
  5
78D
330
78C
100
AcDbEntity
  8
0
100
AcDbBlockBegin
  2
_OPEN30
 70
     0
 10
0.0
 20
0.0
 30
0.0
  3
_OPEN30
  1

  0
LINE
  5
78E
330
78C
100
AcDbEntity
  8
0
  6
ByBlock
 62
     0
370
    -2
100
AcDbLine
 10
-1.0
 20
0.267949
 30
0.0
 11
0.0
 21
0.0
 31
0.0
  0
LINE
  5
78F
330
78C
100
AcDbEntity
  8
0
  6
ByBlock
 62
     0
370
    -2
100
AcDbLine
 10
0.0
 20
0.0
 30
0.0
 11
-1.0
 21
-0.267949
 31
0.0
  0
LINE
  5
790
330
78C
100
AcDbEntity
  8
0
  6
ByBlock
 62
     0
370
    -2
100
AcDbLine
 10
0.0
 20
0.0
 30
0.0
 11
-1.0
 21
0.0
 31
0.0
  0
ENDBLK
  5
791
330
78C
100
AcDbEntity
  8
0
100
AcDbBlockEnd
  0
BLOCK
  5
CFC
330
CFB
100
AcDbEntity
  8
0
100
AcDbBlockBegin
  2
_DotSmall
 70
     0
 10
0.0
 20
0.0
 30
0.0
  3
_DotSmall
  1

  0
LWPOLYLINE
  5
CFD
330
CFB
100
AcDbEntity
  8
0
  6
ByBlock
 62
     0
100
AcDbPolyline
 90
        2
 70
     1
 43
0.5
 10
-0.0625
 20
0.0
 42
1.0
 10
0.0625
 20
0.0
 42
1.0
  0
ENDBLK
  5
CFE
330
CFB
100
AcDbEntity
  8
0
100
AcDbBlockEnd
  0
BLOCK
  5
249E4
330
249E1
100
AcDbEntity
  8
0
100
AcDbBlockBegin
  2
A$C0B7D5268
 70
     2
 10
0.0
 20
0.0
 30
0.0
  3
A$C0B7D5268
  1

  0
LWPOLYLINE
  5
249E5
330
249E1
100
AcDbEntity
  8
D-TTL-LINE　区切り線、罫線
100
AcDbPolyline
 90
        4
 70
     1
 43
0.0
 10
3889.612088690396
 20
389.9999934096122
 10
3999.999967478333
 20
389.9999934096122
 10
3999.999967478448
 20
199.9999934096122
 10
3889.612088690396
 20
199.9999934096122
  0
LWPOLYLINE
  5
249E6
330
249E1
100
AcDbEntity
  8
D-TTL-LINE　区切り線、罫線
100
AcDbPolyline
 90
        4
 70
     1
 43
0.0
 10
3139.612088690046
 20
389.9999934096122
 10
3289.612088690046
 20
389.9999934096122
 10
3289.612088690046
 20
199.9999934096122
 10
3139.612088690046
 20
199.9999934096122
  0
LINE
  5
249E7
330
249E1
100
AcDbEntity
  8
D-TTL-LINE　区切り線、罫線
100
AcDbLine
 10
1369.612088690279
 20
269.9999934099615
 30
0.0
 11
1469.612088690279
 21
269.9999934099615
 31
0.0
  0
LINE
  5
249E8
330
249E1
100
AcDbEntity
  8
D-TTL-LINE　区切り線、罫線
100
AcDbLine
 10
1369.612088690279
 20
329.9999934096122
 30
0.0
 11
1469.612088690279
 21
329.9999934096122
 31
0.0
  0
TEXT
  5
249E9
330
249E1
100
AcDbEntity
  8
D-TTL-TXT　文字列
100
AcDbText
 10
1252.498180030845
 20
215.200241730432
 30
0.0
 40
30.0
  1
.
  7
YOKO_GOTHIC
100
AcDbText
  0
TEXT
  5
249EA
330
249E1
100
AcDbEntity
  8
D-TTL-TXT　文字列
100
AcDbText
 10
1172.498180030845
 20
215.200241730432
 30
0.0
 40
30.0
  1
.
  7
YOKO_GOTHIC
100
AcDbText
  0
TEXT
  5
249EB
330
249E1
100
AcDbEntity
  8
D-TTL-TXT　文字列
100
AcDbText
 10
1252.498180030845
 20
275.2002417300828
 30
0.0
 40
30.0
  1
.
  7
YOKO_GOTHIC
100
AcDbText
  0
TEXT
  5
249EC
330
249E1
100
AcDbEntity
  8
D-TTL-TXT　文字列
100
AcDbText
 10
1172.498180030845
 20
275.2002417300828
 30
0.0
 40
30.0
  1
.
  7
YOKO_GOTHIC
100
AcDbText
  0
TEXT
  5
249ED
330
249E1
100
AcDbEntity
  8
D-TTL-TXT　文字列
100
AcDbText
 10
1252.498180030845
 20
335.2002417298499
 30
0.0
 40
30.0
  1
.
  7
YOKO_GOTHIC
100
AcDbText
  0
LINE
  5
249EE
330
249E1
100
AcDbEntity
  8
D-TTL-LINE　区切り線、罫線
100
AcDbLine
 10
1079.612088690162
 20
269.9999934105435
 30
0.0
 11
229.9999674784485
 21
269.9999934093794
 31
0.0
  0
LINE
  5
249EF
330
249E1
100
AcDbEntity
  8
D-TTL-LINE　区切り線、罫線
100
AcDbLine
 10
1079.612088690162
 20
329.9999934096122
 30
0.0
 11
229.9999674784485
 21
329.9999934096122
 31
0.0
  0
TEXT
  5
249F0
330
249E1
100
AcDbEntity
  8
D-TTL-TXT　文字列
100
AcDbText
 10
1172.498180030845
 20
335.2002417298499
 30
0.0
 40
30.0
  1
.
  7
YOKO_GOTHIC
100
AcDbText
  0
LWPOLYLINE
  5
249F1
330
249E1
100
AcDbEntity
  8
D-TTL-FRAM　タイトル枠、凡例図枠
  6
Continuous
100
AcDbPolyline
 90
        4
 70
     1
 43
0.0
 10
199.9999674784485
 20
199.9999934096122
 10
3999.999967478448
 20
199.9999934096122
 10
3999.999967478448
 20
389.9999934096122
 10
199.9999674784485
 20
389.9999934096122
  0
CIRCLE
  5
249F2
330
249E1
100
AcDbEntity
  8
D-TTL-TXT　文字列
100
AcDbCircle
 10
253.6017100863392
 20
230.0436906303512
 30
0.0
 40
14.80571377091109
  0
TEXT
  5
249F3
330
249E1
100
AcDbEntity
  8
D-TTL-TXT　文字列
100
AcDbText
 10
244.0857497261604
 20
220.5405656221556
 30
0.0
 40
20.0
  1
3
  7
YOKO_GOTHIC
100
AcDbText
  0
CIRCLE
  5
249F4
330
249E1
100
AcDbEntity
  8
D-TTL-TXT　文字列
100
AcDbCircle
 10
253.6017100863392
 20
350.0436906303512
 30
0.0
 40
14.80571377091109
  0
TEXT
  5
249F5
330
249E1
100
AcDbEntity
  8
D-TTL-TXT　文字列
100
AcDbText
 10
244.0857497261604
 20
340.5405656221556
 30
0.0
 40
20.0
  1
1
  7
YOKO_GOTHIC
100
AcDbText
  0
CIRCLE
  5
249F6
330
249E1
100
AcDbEntity
  8
D-TTL-TXT　文字列
100
AcDbCircle
 10
253.6017100863392
 20
290.0436906303512
 30
0.0
 40
14.80571377091109
  0
TEXT
  5
249F7
330
249E1
100
AcDbEntity
  8
D-TTL-TXT　文字列
100
AcDbText
 10
244.0857497261604
 20
280.5405656221556
 30
0.0
 40
20.0
  1
2
  7
YOKO_GOTHIC
100
AcDbText
  0
LINE
  5
249F8
330
249E1
100
AcDbEntity
  8
D-TTL-LINE　区切り線、罫線
100
AcDbLine
 10
1349.612088690279
 20
329.9999934096122
 30
0.0
 11
1099.612088690279
 21
329.9999934096122
 31
0.0
  0
LINE
  5
249F9
330
249E1
100
AcDbEntity
  8
D-TTL-LINE　区切り線、罫線
100
AcDbLine
 10
1349.612088690279
 20
269.9999934099615
 30
0.0
 11
1099.612088690279
 21
269.9999934101943
 31
0.0
  0
LWPOLYLINE
  5
249FA
330
249E1
100
AcDbEntity
  8
D-TTL-LINE　区切り線、罫線
100
AcDbPolyline
 90
        4
 70
     1
 43
0.0
 10
1489.612088690163
 20
389.9999934096122
 10
2289.612088690163
 20
389.9999934096122
 10
2289.612088690163
 20
199.9999934096122
 10
1489.612088690163
 20
199.9999934096122
  0
LINE
  5
249FB
330
249E1
100
AcDbEntity
  8
D-TTL-LINE　区切り線、罫線
  6
DOT
 48
0.1
100
AcDbLine
 10
2489.612088690163
 20
199.9999934096122
 30
0.0
 11
2489.612088690163
 21
389.9999934096122
 31
0.0
  0
TEXT
  5
249FC
330
249E1
100
AcDbEntity
  8
D-TTL-TXT　文字列
100
AcDbText
 10
2300.624580853153
 20
236.4805707250489
 30
0.0
 40
35.0
  1
図面名称
  7
YOKO_GOTHIC
100
AcDbText
  0
TEXT
  5
249FD
330
249E1
100
AcDbEntity
  8
D-TTL-TXT　文字列
100
AcDbText
 10
2300.624580853153
 20
329.0831405118806
 30
0.0
 40
35.0
  1
工事名称
  7
YOKO_GOTHIC
100
AcDbText
  0
LINE
  5
249FE
330
249E1
100
AcDbEntity
  8
D-TTL-LINE　区切り線、罫線
100
AcDbLine
 10
3139.612088690046
 20
299.9999934096122
 30
0.0
 11
2289.612088690163
 21
299.9999934096122
 31
0.0
  0
LWPOLYLINE
  5
249FF
330
249E1
100
AcDbEntity
  8
D-TTL-LINE　区切り線、罫線
100
AcDbPolyline
 90
        4
 70
     1
 43
0.0
 10
2289.612088690163
 20
389.9999934096122
 10
3139.612088690046
 20
389.9999934096122
 10
3139.612088690046
 20
199.9999934096122
 10
2289.612088690163
 20
199.9999934096122
  0
TEXT
  5
24A00
330
249E1
100
AcDbEntity
  8
D-TTL-TXT　文字列
100
AcDbText
 10
3164.566100767581
 20
343.4350704764947
 30
0.0
 40
35.0
  1
縮 尺
  7
YOKO_GOTHIC
100
AcDbText
  0
LINE
  5
24A01
330
249E1
100
AcDbEntity
  8
D-TTL-LINE　区切り線、罫線
100
AcDbLine
 10
3289.612088690046
 20
329.9999934096122
 30
0.0
 11
3139.612088690046
 21
329.9999934096122
 31
0.0
  0
LINE
  5
24A02
330
249E1
100
AcDbEntity
  8
D-TTL-LINE　区切り線、罫線
100
AcDbLine
 10
3889.612088690279
 20
199.9999934096122
 30
0.0
 11
3889.612088690396
 21
389.9999934096122
 31
0.0
  0
LINE
  5
24A03
330
249E1
100
AcDbEntity
  8
D-TTL-LINE　区切り線、罫線
  6
DOT
 48
0.1
100
AcDbLine
 10
3489.612088690163
 20
329.9999934096122
 30
0.0
 11
3489.612088690163
 21
389.9999934096122
 31
0.0
  0
TEXT
  5
24A04
330
249E1
100
AcDbEntity
  8
D-TTL-TXT　文字列
100
AcDbText
 10
3340.308643367607
 20
343.4350704764947
 30
0.0
 40
35.0
  1
日 付
  7
YOKO_GOTHIC
100
AcDbText
  0
LINE
  5
24A05
330
249E1
100
AcDbEntity
  8
D-TTL-LINE　区切り線、罫線
  6
DOT
 48
0.1
100
AcDbLine
 10
3889.612088690396
 20
269.9999934096122
 30
0.0
 11
3289.612088690046
 21
269.9999934096122
 31
0.0
  0
LWPOLYLINE
  5
24A06
330
249E1
100
AcDbEntity
  8
D-TTL-LINE　区切り線、罫線
100
AcDbPolyline
 90
        4
 70
     1
 43
0.0
 10
3289.612088690046
 20
329.9999934096122
 10
3889.612088690396
 20
329.9999934096122
 10
3889.612088690396
 20
389.9999934096122
 10
3289.612088690046
 20
389.9999934096122
  0
LWPOLYLINE
  5
24A07
330
249E1
100
AcDbEntity
  8
D-TTL-LINE　区切り線、罫線
100
AcDbPolyline
 90
        4
 70
     1
 43
0.0
 10
3289.612088690046
 20
329.9999934096122
 10
3489.612088690163
 20
329.9999934096122
 10
3489.612088690047
 20
199.9999934096122
 10
3289.612088690046
 20
199.9999934096122
  0
LWPOLYLINE
  5
24A08
330
249E1
100
AcDbEntity
  8
D-TTL-LINE　区切り線、罫線
100
AcDbPolyline
 90
        4
 70
     1
 43
0.0
 10
3489.612088690163
 20
329.9999934096122
 10
3689.612088690279
 20
329.9999934096122
 10
3689.612088690279
 20
199.9999934096122
 10
3489.612088690163
 20
199.9999934096122
  0
LINE
  5
24A09
330
249E1
100
AcDbEntity
  8
D-TTL-TXT　文字列
100
AcDbLine
 10
1590.195649210363
 20
313.962731042644
 30
0.0
 11
1595.820515281172
 21
319.7959254867165
 31
0.0
  0
LINE
  5
24A0A
330
249E1
100
AcDbEntity
  8
D-TTL-TXT　文字列
100
AcDbLine
 10
1580.612544052652
 20
306.8795663609635
 30
0.0
 11
1603.528665081831
 21
329.5873590171104
 31
0.0
  0
LINE
  5
24A0B
330
249E1
100
AcDbEntity
  8
D-TTL-TXT　文字列
100
AcDbLine
 10
1576.029319847003
 20
304.5879542579641
 30
0.0
 11
1604.57030694664
 21
333.1289413581835
 31
0.0
  0
LINE
  5
24A0C
330
249E1
100
AcDbEntity
  8
D-TTL-TXT　文字列
100
AcDbLine
 10
1572.487737506162
 20
303.337984019774
 30
0.0
 11
1602.278694843757
 21
333.1289413581835
 31
0.0
  0
LINE
  5
24A0D
330
249E1
100
AcDbEntity
  8
D-TTL-TXT　文字列
100
AcDbLine
 10
1569.154483538237
 20
302.2963421549648
 30
0.0
 11
1599.98708274099
 21
333.1289413581835
 31
0.0
  0
LINE
  5
24A0E
330
249E1
100
AcDbEntity
  8
D-TTL-TXT　文字列
100
AcDbLine
 10
1566.237886316143
 20
301.8796854092507
 30
0.0
 11
1597.487142265076
 21
333.1289413581835
 31
0.0
  0
LINE
  5
24A0F
330
249E1
100
AcDbEntity
  8
D-TTL-TXT　文字列
100
AcDbLine
 10
1563.529617467429
 20
301.4630286633037
 30
0.0
 11
1595.195530162076
 21
333.1289413581835
 31
0.0
  0
LINE
  5
24A10
330
249E1
100
AcDbEntity
  8
D-TTL-TXT　文字列
100
AcDbLine
 10
1561.029676991398
 20
301.4630286633037
 30
0.0
 11
1592.903918059077
 21
333.1289413581835
 31
0.0
  0
LINE
  5
24A11
330
249E1
100
AcDbEntity
  8
D-TTL-TXT　文字列
100
AcDbLine
 10
1585.195768258534
 20
327.9207320329733
 30
0.0
 11
1590.403977583279
 21
333.1289413581835
 31
0.0
  0
LINE
  5
24A12
330
249E1
100
AcDbEntity
  8
D-TTL-TXT　文字列
100
AcDbLine
 10
1558.738064888399
 20
301.2547002900392
 30
0.0
 11
1564.779587705387
 21
307.504551480175
 31
0.0
  0
LINE
  5
24A13
330
249E1
100
AcDbEntity
  8
D-TTL-TXT　文字列
100
AcDbLine
 10
1556.446452785749
 20
301.4630286633037
 30
0.0
 11
1559.988035126589
 21
305.0046110039111
 31
0.0
  0
LINE
  5
24A14
330
249E1
100
AcDbEntity
  8
D-TTL-TXT　文字列
100
AcDbLine
 10
1554.154840682866
 20
301.4630286633037
 30
0.0
 11
1556.446452785749
 21
303.7546407660702
 31
0.0
  0
LINE
  5
24A15
330
249E1
100
AcDbEntity
  8
D-TTL-TXT　文字列
100
AcDbLine
 10
1551.863228579867
 20
301.4630286633037
 30
0.0
 11
1552.904870444676
 21
302.7129989011446
 31
0.0
  0
LINE
  5
24A16
330
249E1
100
AcDbEntity
  8
D-TTL-TXT　文字列
100
AcDbLine
 10
1551.654900206951
 20
302.2963421549648
 30
0.0
 11
1552.696542071877
 21
301.4630286633037
 31
0.0
  0
LINE
  5
24A17
330
249E1
100
AcDbEntity
  8
D-TTL-TXT　文字列
100
AcDbLine
 10
1553.529855563771
 20
302.9213272741763
 30
0.0
 11
1555.196482547675
 21
301.2547002900392
 31
0.0
  0
LINE
  5
24A18
330
249E1
100
AcDbEntity
  8
D-TTL-TXT　文字列
100
AcDbLine
 10
1555.40481092059
 20
303.337984019774
 30
0.0
 11
1557.696423023473
 21
301.2547002900392
 31
0.0
  0
LINE
  5
24A19
330
249E1
100
AcDbEntity
  8
D-TTL-TXT　文字列
100
AcDbLine
 10
1557.279766277643
 20
303.9629691389855
 30
0.0
 11
1559.988035126589
 21
301.2547002900392
 31
0.0
  0
LINE
  5
24A1A
330
249E1
100
AcDbEntity
  8
D-TTL-TXT　文字列
100
AcDbLine
 10
1558.946393261547
 20
304.5879542579641
 30
0.0
 11
1562.279647229356
 21
301.2547002900392
 31
0.0
  0
LINE
  5
24A1B
330
249E1
100
AcDbEntity
  8
D-TTL-TXT　文字列
100
AcDbLine
 10
1560.613020245451
 20
305.4212677498581
 30
0.0
 11
1564.362930959323
 21
301.6713570359862
 31
0.0
  0
LINE
  5
24A1C
330
249E1
100
AcDbEntity
  8
D-TTL-TXT　文字列
100
AcDbLine
 10
1562.071318856207
 20
306.2545812419849
 30
0.0
 11
1566.237886316143
 21
301.8796854092507
 31
0.0
  0
LINE
  5
24A1D
330
249E1
100
AcDbEntity
  8
D-TTL-TXT　文字列
100
AcDbLine
 10
1563.737945840345
 20
306.8795663609635
 30
0.0
 11
1568.321170046343
 21
302.2963421549648
 31
0.0
  0
LINE
  5
24A1E
330
249E1
100
AcDbEntity
  8
D-TTL-TXT　文字列
100
AcDbLine
 10
1565.196244451334
 20
307.9212082257727
 30
0.0
 11
1570.196125403047
 21
302.7129989011446
 31
0.0
  0
LINE
  5
24A1F
330
249E1
100
AcDbEntity
  8
D-TTL-TXT　文字列
100
AcDbLine
 10
1566.446214689291
 20
308.7545217180159
 30
0.0
 11
1572.071080759866
 21
303.337984019774
 31
0.0
  0
LINE
  5
24A20
330
249E1
100
AcDbEntity
  8
D-TTL-TXT　文字列
100
AcDbLine
 10
1567.904513300163
 20
309.7961635831743
 30
0.0
 11
1573.946036116918
 21
303.7546407660702
 31
0.0
  0
LINE
  5
24A21
330
249E1
100
AcDbEntity
  8
D-TTL-TXT　文字列
100
AcDbLine
 10
1569.154483538237
 20
310.8378054479836
 30
0.0
 11
1575.612663100823
 21
304.5879542579641
 31
0.0
  0
LINE
  5
24A22
330
249E1
100
AcDbEntity
  8
D-TTL-TXT　文字列
100
AcDbLine
 10
1570.61278214911
 20
311.8794473129092
 30
0.0
 11
1577.279290084727
 21
305.2129393771756
 31
0.0
  0
LINE
  5
24A23
330
249E1
100
AcDbEntity
  8
D-TTL-TXT　文字列
100
AcDbLine
 10
1571.862752387067
 20
312.9210891777184
 30
0.0
 11
1578.7375886956
 21
305.8379244960379
 31
0.0
  0
LINE
  5
24A24
330
249E1
100
AcDbEntity
  8
D-TTL-TXT　文字列
100
AcDbLine
 10
1573.112722625024
 20
313.962731042644
 30
0.0
 11
1580.404215679737
 21
306.671237987699
 31
0.0
  0
LINE
  5
24A25
330
249E1
100
AcDbEntity
  8
D-TTL-TXT　文字列
100
AcDbLine
 10
1574.154364490066
 20
315.2127012807178
 30
0.0
 11
1581.862514290609
 21
307.504551480175
 31
0.0
  0
LINE
  5
24A26
330
249E1
100
AcDbEntity
  8
D-TTL-TXT　文字列
100
AcDbLine
 10
1575.404334727674
 20
316.2543431456434
 30
0.0
 11
1583.320812901598
 21
308.5461933449842
 31
0.0
  0
LINE
  5
24A27
330
249E1
100
AcDbEntity
  8
D-TTL-TXT　文字列
100
AcDbLine
 10
1576.654304965865
 20
317.5043133837171
 30
0.0
 11
1584.570783139439
 21
309.3795068368781
 31
0.0
  0
LINE
  5
24A28
330
249E1
100
AcDbEntity
  8
D-TTL-TXT　文字列
100
AcDbLine
 10
1577.69594683079
 20
318.7542836213252
 30
0.0
 11
1586.029081750545
 21
310.4211487018038
 31
0.0
  0
LINE
  5
24A29
330
249E1
100
AcDbEntity
  8
D-TTL-TXT　文字列
100
AcDbLine
 10
1578.945917068748
 20
320.004253859166
 30
0.0
 11
1587.279051988385
 21
311.6711189396446
 31
0.0
  0
LINE
  5
24A2A
330
249E1
100
AcDbEntity
  8
D-TTL-TXT　文字列
100
AcDbLine
 10
1579.987558933673
 20
321.2542240972398
 30
0.0
 11
1588.529022226343
 21
312.7127608048031
 31
0.0
  0
LINE
  5
24A2B
330
249E1
100
AcDbEntity
  8
D-TTL-TXT　文字列
100
AcDbLine
 10
1581.029200798599
 20
322.5041943354299
 30
0.0
 11
1589.7789924643
 21
313.7544026696123
 31
0.0
  0
LINE
  5
24A2C
330
249E1
100
AcDbEntity
  8
D-TTL-TXT　文字列
100
AcDbLine
 10
1582.070842663525
 20
323.7541645732708
 30
0.0
 11
1591.028962702258
 21
314.7960445347708
 31
0.0
  0
LINE
  5
24A2D
330
249E1
100
AcDbEntity
  8
D-TTL-TXT　文字列
100
AcDbLine
 10
1583.112484528683
 20
325.0041348111117
 30
0.0
 11
1592.278932940215
 21
316.0460147726117
 31
0.0
  0
LINE
  5
24A2E
330
249E1
100
AcDbEntity
  8
D-TTL-TXT　文字列
100
AcDbLine
 10
1584.154126393609
 20
326.46243342245
 30
0.0
 11
1593.528903178172
 21
317.2959850104526
 31
0.0
  0
LINE
  5
24A2F
330
249E1
100
AcDbEntity
  8
D-TTL-TXT　文字列
100
AcDbLine
 10
1585.195768258534
 20
327.712403660058
 30
0.0
 11
1594.570545043097
 21
318.3376268753782
 31
0.0
  0
LINE
  5
24A30
330
249E1
100
AcDbEntity
  8
D-TTL-TXT　文字列
100
AcDbLine
 10
1586.029081750545
 20
329.1707022711634
 30
0.0
 11
1595.612186908023
 21
319.5875971134519
 31
0.0
  0
LINE
  5
24A31
330
249E1
100
AcDbEntity
  8
D-TTL-TXT　文字列
100
AcDbLine
 10
1587.070723615354
 20
330.6290008819197
 30
0.0
 11
1596.862157145981
 21
320.8375673516421
 31
0.0
  0
LINE
  5
24A32
330
249E1
100
AcDbEntity
  8
D-TTL-TXT　文字列
100
AcDbLine
 10
1587.904037107248
 20
332.0872994927922
 30
0.0
 11
1597.903799010906
 21
322.087537589483
 31
0.0
  0
LINE
  5
24A33
330
249E1
100
AcDbEntity
  8
D-TTL-TXT　文字列
100
AcDbLine
 10
1589.154007345438
 20
333.1289413581835
 30
0.0
 11
1598.945440875948
 21
323.3375078269746
 31
0.0
  0
LINE
  5
24A34
330
249E1
100
AcDbEntity
  8
D-TTL-TXT　文字列
100
AcDbLine
 10
1591.445619448321
 20
333.1289413581835
 30
0.0
 11
1599.98708274099
 21
324.7958064384293
 31
0.0
  0
LINE
  5
24A35
330
249E1
100
AcDbEntity
  8
D-TTL-TXT　文字列
100
AcDbLine
 10
1593.945559924119
 20
333.1289413581835
 30
0.0
 11
1601.028724605799
 21
326.0457766762702
 31
0.0
  0
LINE
  5
24A36
330
249E1
100
AcDbEntity
  8
D-TTL-TXT　文字列
100
AcDbLine
 10
1596.237172027002
 20
333.1289413581835
 30
0.0
 11
1602.070366470609
 21
327.5040752873756
 31
0.0
  0
LINE
  5
24A37
330
249E1
100
AcDbEntity
  8
D-TTL-TXT　文字列
100
AcDbLine
 10
1598.528784130001
 20
333.1289413581835
 30
0.0
 11
1602.903679962735
 21
328.7540455252165
 31
0.0
  0
LINE
  5
24A38
330
249E1
100
AcDbEntity
  8
D-TTL-TXT　文字列
100
AcDbLine
 10
1600.820396233
 20
333.1289413581835
 30
0.0
 11
1603.945321827661
 21
330.2123441359727
 31
0.0
  0
LINE
  5
24A39
330
249E1
100
AcDbEntity
  8
D-TTL-TXT　文字列
100
AcDbLine
 10
1603.320336708799
 20
333.1289413581835
 30
0.0
 11
1604.778635319788
 21
331.6706427468453
 31
0.0
  0
LINE
  5
24A3A
330
249E1
100
AcDbEntity
  8
D-TTL-TXT　文字列
100
AcDbLine
 10
1605.611948811682
 20
333.1289413581835
 30
0.0
 11
1605.820277184713
 21
333.1289413581835
 31
0.0
  0
LINE
  5
24A3B
330
249E1
100
AcDbEntity
  8
D-TTL-TXT　文字列
100
AcDbLine
 10
1590.195649210363
 20
352.5034800461726
 30
0.0
 11
1595.820515281172
 21
346.6702856021002
 31
0.0
  0
LINE
  5
24A3C
330
249E1
100
AcDbEntity
  8
D-TTL-TXT　文字列
100
AcDbLine
 10
1580.612544052652
 20
359.5866447278531
 30
0.0
 11
1603.528665081831
 21
336.8788520717062
 31
0.0
  0
LINE
  5
24A3D
330
249E1
100
AcDbEntity
  8
D-TTL-TXT　文字列
100
AcDbLine
 10
1576.029319847003
 20
361.8782568308525
 30
0.0
 11
1604.57030694664
 21
333.3372697306331
 31
0.0
  0
LINE
  5
24A3E
330
249E1
100
AcDbEntity
  8
D-TTL-TXT　文字列
100
AcDbLine
 10
1572.487737506162
 20
363.1282270690426
 30
0.0
 11
1602.278694843757
 21
333.3372697306331
 31
0.0
  0
LINE
  5
24A3F
330
249E1
100
AcDbEntity
  8
D-TTL-TXT　文字列
100
AcDbLine
 10
1569.154483538237
 20
364.1698689338519
 30
0.0
 11
1599.98708274099
 21
333.3372697306331
 31
0.0
  0
LINE
  5
24A40
330
249E1
100
AcDbEntity
  8
D-TTL-TXT　文字列
100
AcDbLine
 10
1566.237886316143
 20
364.5865256795659
 30
0.0
 11
1597.487142265076
 21
333.3372697306331
 31
0.0
  0
LINE
  5
24A41
330
249E1
100
AcDbEntity
  8
D-TTL-TXT　文字列
100
AcDbLine
 10
1563.529617467429
 20
365.0031824255129
 30
0.0
 11
1595.195530162076
 21
333.3372697306331
 31
0.0
  0
LINE
  5
24A42
330
249E1
100
AcDbEntity
  8
D-TTL-TXT　文字列
100
AcDbLine
 10
1561.029676991398
 20
365.0031824255129
 30
0.0
 11
1592.903918059077
 21
333.3372697306331
 31
0.0
  0
LINE
  5
24A43
330
249E1
100
AcDbEntity
  8
D-TTL-TXT　文字列
100
AcDbLine
 10
1585.195768258534
 20
338.5454790558433
 30
0.0
 11
1590.403977583279
 21
333.3372697306331
 31
0.0
  0
LINE
  5
24A44
330
249E1
100
AcDbEntity
  8
D-TTL-TXT　文字列
100
AcDbLine
 10
1558.738064888399
 20
365.2115107987774
 30
0.0
 11
1564.779587705387
 21
358.9616596086417
 31
0.0
  0
LINE
  5
24A45
330
249E1
100
AcDbEntity
  8
D-TTL-TXT　文字列
100
AcDbLine
 10
1556.446452785749
 20
365.0031824255129
 30
0.0
 11
1559.988035126589
 21
361.4616000849055
 31
0.0
  0
LINE
  5
24A46
330
249E1
100
AcDbEntity
  8
D-TTL-TXT　文字列
100
AcDbLine
 10
1554.154840682866
 20
365.0031824255129
 30
0.0
 11
1556.446452785749
 21
362.7115703227464
 31
0.0
  0
LINE
  5
24A47
330
249E1
100
AcDbEntity
  8
D-TTL-TXT　文字列
100
AcDbLine
 10
1551.863228579867
 20
365.0031824255129
 30
0.0
 11
1552.904870444676
 21
363.753212187672
 31
0.0
  0
LINE
  5
24A48
330
249E1
100
AcDbEntity
  8
D-TTL-TXT　文字列
100
AcDbLine
 10
1551.654900206951
 20
364.1698689338519
 30
0.0
 11
1552.696542071877
 21
365.0031824255129
 31
0.0
  0
LINE
  5
24A49
330
249E1
100
AcDbEntity
  8
D-TTL-TXT　文字列
100
AcDbLine
 10
1553.529855563771
 20
363.5448838146404
 30
0.0
 11
1555.196482547675
 21
365.2115107987774
 31
0.0
  0
LINE
  5
24A4A
330
249E1
100
AcDbEntity
  8
D-TTL-TXT　文字列
100
AcDbLine
 10
1555.40481092059
 20
363.1282270690426
 30
0.0
 11
1557.696423023473
 21
365.2115107987774
 31
0.0
  0
LINE
  5
24A4B
330
249E1
100
AcDbEntity
  8
D-TTL-TXT　文字列
100
AcDbLine
 10
1557.279766277643
 20
362.5032419498311
 30
0.0
 11
1559.988035126589
 21
365.2115107987774
 31
0.0
  0
LINE
  5
24A4C
330
249E1
100
AcDbEntity
  8
D-TTL-TXT　文字列
100
AcDbLine
 10
1558.946393261547
 20
361.8782568308525
 30
0.0
 11
1562.279647229356
 21
365.2115107987774
 31
0.0
  0
LINE
  5
24A4D
330
249E1
100
AcDbEntity
  8
D-TTL-TXT　文字列
100
AcDbLine
 10
1560.613020245451
 20
361.0449433387257
 30
0.0
 11
1564.362930959323
 21
364.7948540528305
 31
0.0
  0
LINE
  5
24A4E
330
249E1
100
AcDbEntity
  8
D-TTL-TXT　文字列
100
AcDbLine
 10
1562.071318856207
 20
360.2116298468318
 30
0.0
 11
1566.237886316143
 21
364.5865256795659
 31
0.0
  0
LINE
  5
24A4F
330
249E1
100
AcDbEntity
  8
D-TTL-TXT　文字列
100
AcDbLine
 10
1563.737945840345
 20
359.5866447278531
 30
0.0
 11
1568.321170046343
 21
364.1698689338519
 31
0.0
  0
LINE
  5
24A50
330
249E1
100
AcDbEntity
  8
D-TTL-TXT　文字列
100
AcDbLine
 10
1565.196244451334
 20
358.5450028630439
 30
0.0
 11
1570.196125403047
 21
363.753212187672
 31
0.0
  0
LINE
  5
24A51
330
249E1
100
AcDbEntity
  8
D-TTL-TXT　文字列
100
AcDbLine
 10
1566.446214689291
 20
357.71168937115
 30
0.0
 11
1572.071080759866
 21
363.1282270690426
 31
0.0
  0
LINE
  5
24A52
330
249E1
100
AcDbEntity
  8
D-TTL-TXT　文字列
100
AcDbLine
 10
1567.904513300163
 20
356.6700475056423
 30
0.0
 11
1573.946036116918
 21
362.7115703227464
 31
0.0
  0
LINE
  5
24A53
330
249E1
100
AcDbEntity
  8
D-TTL-TXT　文字列
100
AcDbLine
 10
1569.154483538237
 20
355.6284056408331
 30
0.0
 11
1575.612663100823
 21
361.8782568308525
 31
0.0
  0
LINE
  5
24A54
330
249E1
100
AcDbEntity
  8
D-TTL-TXT　文字列
100
AcDbLine
 10
1570.61278214911
 20
354.5867637759075
 30
0.0
 11
1577.279290084727
 21
361.253271711641
 31
0.0
  0
LINE
  5
24A55
330
249E1
100
AcDbEntity
  8
D-TTL-TXT　文字列
100
AcDbLine
 10
1571.862752387067
 20
353.5451219110982
 30
0.0
 11
1578.7375886956
 21
360.6282865927787
 31
0.0
  0
LINE
  5
24A56
330
249E1
100
AcDbEntity
  8
D-TTL-TXT　文字列
100
AcDbLine
 10
1573.112722625024
 20
352.5034800461726
 30
0.0
 11
1580.404215679737
 21
359.7949731011177
 31
0.0
  0
LINE
  5
24A57
330
249E1
100
AcDbEntity
  8
D-TTL-TXT　文字列
100
AcDbLine
 10
1574.154364490066
 20
351.2535098080989
 30
0.0
 11
1581.862514290609
 21
358.9616596086417
 31
0.0
  0
LINE
  5
24A58
330
249E1
100
AcDbEntity
  8
D-TTL-TXT　文字列
100
AcDbLine
 10
1575.404334727674
 20
350.2118679431733
 30
0.0
 11
1583.320812901598
 21
357.9200177438324
 31
0.0
  0
LINE
  5
24A59
330
249E1
100
AcDbEntity
  8
D-TTL-TXT　文字列
100
AcDbLine
 10
1576.654304965865
 20
348.9618977050995
 30
0.0
 11
1584.570783139439
 21
357.0867042519385
 31
0.0
  0
LINE
  5
24A5A
330
249E1
100
AcDbEntity
  8
D-TTL-TXT　文字列
100
AcDbLine
 10
1577.69594683079
 20
347.7119274672586
 30
0.0
 11
1586.029081750545
 21
356.0450623870129
 31
0.0
  0
LINE
  5
24A5B
330
249E1
100
AcDbEntity
  8
D-TTL-TXT　文字列
100
AcDbLine
 10
1578.945917068748
 20
346.4619572296506
 30
0.0
 11
1587.279051988385
 21
354.795092149172
 31
0.0
  0
LINE
  5
24A5C
330
249E1
100
AcDbEntity
  8
D-TTL-TXT　文字列
100
AcDbLine
 10
1579.987558933673
 20
345.2119869915768
 30
0.0
 11
1588.529022226343
 21
353.7534502840135
 31
0.0
  0
LINE
  5
24A5D
330
249E1
100
AcDbEntity
  8
D-TTL-TXT　文字列
100
AcDbLine
 10
1581.029200798599
 20
343.9620167533867
 30
0.0
 11
1589.7789924643
 21
352.7118084192043
 31
0.0
  0
LINE
  5
24A5E
330
249E1
100
AcDbEntity
  8
D-TTL-TXT　文字列
100
AcDbLine
 10
1582.070842663525
 20
342.7120465155458
 30
0.0
 11
1591.028962702258
 21
351.6701665540459
 31
0.0
  0
LINE
  5
24A5F
330
249E1
100
AcDbEntity
  8
D-TTL-TXT　文字列
100
AcDbLine
 10
1583.112484528683
 20
341.4620762777049
 30
0.0
 11
1592.278932940215
 21
350.420196316205
 31
0.0
  0
LINE
  5
24A60
330
249E1
100
AcDbEntity
  8
D-TTL-TXT　文字列
100
AcDbLine
 10
1584.154126393609
 20
340.0037776663666
 30
0.0
 11
1593.528903178172
 21
349.170226078364
 31
0.0
  0
LINE
  5
24A61
330
249E1
100
AcDbEntity
  8
D-TTL-TXT　文字列
100
AcDbLine
 10
1585.195768258534
 20
338.7538074285258
 30
0.0
 11
1594.570545043097
 21
348.1285842134385
 31
0.0
  0
LINE
  5
24A62
330
249E1
100
AcDbEntity
  8
D-TTL-TXT　文字列
100
AcDbLine
 10
1586.029081750545
 20
337.2955088176532
 30
0.0
 11
1595.612186908023
 21
346.8786139753647
 31
0.0
  0
LINE
  5
24A63
330
249E1
100
AcDbEntity
  8
D-TTL-TXT　文字列
100
AcDbLine
 10
1587.070723615354
 20
335.837210206897
 30
0.0
 11
1596.862157145981
 21
345.6286437371746
 31
0.0
  0
LINE
  5
24A64
330
249E1
100
AcDbEntity
  8
D-TTL-TXT　文字列
100
AcDbLine
 10
1587.904037107248
 20
334.3789115957916
 30
0.0
 11
1597.903799010906
 21
344.3786734996829
 31
0.0
  0
LINE
  5
24A65
330
249E1
100
AcDbEntity
  8
D-TTL-TXT　文字列
100
AcDbLine
 10
1589.154007345438
 20
333.3372697306331
 30
0.0
 11
1598.945440875948
 21
343.128703261842
 31
0.0
  0
LINE
  5
24A66
330
249E1
100
AcDbEntity
  8
D-TTL-TXT　文字列
100
AcDbLine
 10
1591.445619448321
 20
333.3372697306331
 30
0.0
 11
1599.98708274099
 21
341.6704046503874
 31
0.0
  0
LINE
  5
24A67
330
249E1
100
AcDbEntity
  8
D-TTL-TXT　文字列
100
AcDbLine
 10
1593.945559924119
 20
333.3372697306331
 30
0.0
 11
1601.028724605799
 21
340.4204344125465
 31
0.0
  0
LINE
  5
24A68
330
249E1
100
AcDbEntity
  8
D-TTL-TXT　文字列
100
AcDbLine
 10
1596.237172027002
 20
333.3372697306331
 30
0.0
 11
1602.070366470609
 21
338.9621358014411
 31
0.0
  0
LINE
  5
24A69
330
249E1
100
AcDbEntity
  8
D-TTL-TXT　文字列
100
AcDbLine
 10
1598.528784130001
 20
333.3372697306331
 30
0.0
 11
1602.903679962735
 21
337.7121655639494
 31
0.0
  0
LINE
  5
24A6A
330
249E1
100
AcDbEntity
  8
D-TTL-TXT　文字列
100
AcDbLine
 10
1600.820396233
 20
333.3372697306331
 30
0.0
 11
1603.945321827661
 21
336.253866952844
 31
0.0
  0
LINE
  5
24A6B
330
249E1
100
AcDbEntity
  8
D-TTL-TXT　文字列
100
AcDbLine
 10
1603.320336708799
 20
333.3372697306331
 30
0.0
 11
1604.778635319788
 21
334.7955683419714
 31
0.0
  0
LINE
  5
24A6C
330
249E1
100
AcDbEntity
  8
D-TTL-TXT　文字列
100
AcDbLine
 10
1605.611948811682
 20
333.3372697306331
 30
0.0
 11
1605.820277184713
 21
333.3372697306331
 31
0.0
  0
LINE
  5
24A6D
330
249E1
100
AcDbEntity
  8
D-TTL-TXT　文字列
100
AcDbLine
 10
1549.988273222931
 20
302.0880137822824
 30
0.0
 11
1550.196601595962
 21
302.0880137822824
 31
0.0
  0
LINE
  5
24A6E
330
249E1
100
AcDbEntity
  8
D-TTL-TXT　文字列
100
AcDbLine
 10
1547.071676000953
 20
301.4630286633037
 30
0.0
 11
1548.529974611942
 21
302.9213272741763
 31
0.0
  0
LINE
  5
24A6F
330
249E1
100
AcDbEntity
  8
D-TTL-TXT　文字列
100
AcDbLine
 10
1544.571735525038
 20
301.2547002900392
 30
0.0
 11
1547.071676000953
 21
303.7546407660702
 31
0.0
  0
LINE
  5
24A70
330
249E1
100
AcDbEntity
  8
D-TTL-TXT　文字列
100
AcDbLine
 10
1542.071795049123
 20
301.2547002900392
 30
0.0
 11
1545.61337739008
 21
304.7962826312287
 31
0.0
  0
LINE
  5
24A71
330
249E1
100
AcDbEntity
  8
D-TTL-TXT　文字列
100
AcDbLine
 10
1539.780182946357
 20
301.2547002900392
 30
0.0
 11
1544.363407152006
 21
305.8379244960379
 31
0.0
  0
LINE
  5
24A72
330
249E1
100
AcDbEntity
  8
D-TTL-TXT　文字列
100
AcDbLine
 10
1537.488570843474
 20
301.2547002900392
 30
0.0
 11
1543.321765287197
 21
307.2962231069105
 31
0.0
  0
LINE
  5
24A73
330
249E1
100
AcDbEntity
  8
D-TTL-TXT　文字列
100
AcDbLine
 10
1535.405287113273
 20
301.4630286633037
 30
0.0
 11
1542.280123422155
 21
308.5461933449842
 31
0.0
  0
LINE
  5
24A74
330
249E1
100
AcDbEntity
  8
D-TTL-TXT　文字列
100
AcDbLine
 10
1533.53033175657
 20
302.0880137822824
 30
0.0
 11
1541.446809930261
 21
310.0044919555076
 31
0.0
  0
LINE
  5
24A75
330
249E1
100
AcDbEntity
  8
D-TTL-TXT　文字列
100
AcDbLine
 10
1531.863704772666
 20
302.7129989011446
 30
0.0
 11
1540.821824811399
 21
311.6711189396446
 31
0.0
  0
LINE
  5
24A76
330
249E1
100
AcDbEntity
  8
D-TTL-TXT　文字列
100
AcDbLine
 10
1530.405406161677
 20
303.7546407660702
 30
0.0
 11
1540.196839692304
 21
313.546074296697
 31
0.0
  0
LINE
  5
24A77
330
249E1
100
AcDbEntity
  8
D-TTL-TXT　文字列
100
AcDbLine
 10
1528.947107550688
 20
304.5879542579641
 30
0.0
 11
1539.780182946357
 21
315.4210296537494
 31
0.0
  0
LINE
  5
24A78
330
249E1
100
AcDbEntity
  8
D-TTL-TXT　文字列
100
AcDbLine
 10
1527.697137312731
 20
305.6295961227734
 30
0.0
 11
1539.780182946357
 21
317.7126417567488
 31
0.0
  0
LINE
  5
24A79
330
249E1
100
AcDbEntity
  8
D-TTL-TXT　文字列
100
AcDbLine
 10
1526.655495447805
 20
306.8795663609635
 30
0.0
 11
1539.988511319272
 21
320.2125822324306
 31
0.0
  0
LINE
  5
24A7A
330
249E1
100
AcDbEntity
  8
D-TTL-TXT　文字列
100
AcDbLine
 10
1549.779944849899
 20
332.503956238972
 30
0.0
 11
1550.613258341793
 21
333.1289413581835
 31
0.0
  0
LINE
  5
24A7B
330
249E1
100
AcDbEntity
  8
D-TTL-TXT　文字列
100
AcDbLine
 10
1525.405525209731
 20
308.1295365990373
 30
0.0
 11
1541.030153184198
 21
323.5458362002392
 31
0.0
  0
LINE
  5
24A7C
330
249E1
100
AcDbEntity
  8
D-TTL-TXT　文字列
100
AcDbLine
 10
1524.780540090985
 20
309.7961635831743
 30
0.0
 11
1548.113317865994
 21
333.1289413581835
 31
0.0
  0
LINE
  5
24A7D
330
249E1
100
AcDbEntity
  8
D-TTL-TXT　文字列
100
AcDbLine
 10
1523.947226598859
 20
311.2544621936977
 30
0.0
 11
1545.821705763228
 21
333.1289413581835
 31
0.0
  0
LINE
  5
24A7E
330
249E1
100
AcDbEntity
  8
D-TTL-TXT　文字列
100
AcDbLine
 10
1523.322241479996
 20
313.1294175509829
 30
0.0
 11
1543.530093660112
 21
333.1289413581835
 31
0.0
  0
LINE
  5
24A7F
330
249E1
100
AcDbEntity
  8
D-TTL-TXT　文字列
100
AcDbLine
 10
1522.905584733933
 20
315.0043729074532
 30
0.0
 11
1541.238481557229
 21
333.1289413581835
 31
0.0
  0
LINE
  5
24A80
330
249E1
100
AcDbEntity
  8
D-TTL-TXT　文字列
100
AcDbLine
 10
1522.697256361134
 20
317.0876566375373
 30
0.0
 11
1538.738541081198
 21
333.1289413581835
 31
0.0
  0
LINE
  5
24A81
330
249E1
100
AcDbEntity
  8
D-TTL-TXT　文字列
100
AcDbLine
 10
1522.905584733933
 20
319.7959254867165
 30
0.0
 11
1536.446928978432
 21
333.1289413581835
 31
0.0
  0
LINE
  5
24A82
330
249E1
100
AcDbEntity
  8
D-TTL-TXT　文字列
100
AcDbLine
 10
1523.738898225943
 20
322.7125227083452
 30
0.0
 11
1533.53033175657
 21
332.7122846120037
 31
0.0
  0
LINE
  5
24A83
330
249E1
100
AcDbEntity
  8
D-TTL-TXT　文字列
100
AcDbLine
 10
1523.947226598859
 20
311.4627905669622
 30
0.0
 11
1532.905346637475
 21
302.2963421549648
 31
0.0
  0
LINE
  5
24A84
330
249E1
100
AcDbEntity
  8
D-TTL-TXT　文字列
100
AcDbLine
 10
1522.905584733933
 20
314.7960445347708
 30
0.0
 11
1536.2386006054
 21
301.4630286633037
 31
0.0
  0
LINE
  5
24A85
330
249E1
100
AcDbEntity
  8
D-TTL-TXT　文字列
100
AcDbLine
 10
1522.697256361134
 20
317.2959850104526
 30
0.0
 11
1538.738541081198
 21
301.2547002900392
 31
0.0
  0
LINE
  5
24A86
330
249E1
100
AcDbEntity
  8
D-TTL-TXT　文字列
100
AcDbLine
 10
1522.905584733933
 20
319.5875971134519
 30
0.0
 11
1541.238481557229
 21
301.2547002900392
 31
0.0
  0
LINE
  5
24A87
330
249E1
100
AcDbEntity
  8
D-TTL-TXT　文字列
100
AcDbLine
 10
1523.322241479996
 20
321.4625524705043
 30
0.0
 11
1543.530093660112
 21
301.2547002900392
 31
0.0
  0
LINE
  5
24A88
330
249E1
100
AcDbEntity
  8
D-TTL-TXT　文字列
100
AcDbLine
 10
1523.738898225943
 20
323.3375078269746
 30
0.0
 11
1545.61337739008
 21
301.4630286633037
 31
0.0
  0
LINE
  5
24A89
330
249E1
100
AcDbEntity
  8
D-TTL-TXT　文字列
100
AcDbLine
 10
1524.572211717837
 20
324.7958064384293
 30
0.0
 11
1547.904989492846
 21
301.6713570359862
 31
0.0
  0
LINE
  5
24A8A
330
249E1
100
AcDbEntity
  8
D-TTL-TXT　文字列
100
AcDbLine
 10
1549.154959731037
 20
302.7129989011446
 30
0.0
 11
1549.779944849899
 21
301.8796854092507
 31
0.0
  0
LINE
  5
24A8B
330
249E1
100
AcDbEntity
  8
D-TTL-TXT　文字列
100
AcDbLine
 10
1525.405525209731
 20
326.46243342245
 30
0.0
 11
1541.446809930261
 21
310.4211487018038
 31
0.0
  0
LINE
  5
24A8C
330
249E1
100
AcDbEntity
  8
D-TTL-TXT　文字列
100
AcDbLine
 10
1526.44716707489
 20
327.712403660058
 30
0.0
 11
1540.196839692304
 21
313.962731042644
 31
0.0
  0
LINE
  5
24A8D
330
249E1
100
AcDbEntity
  8
D-TTL-TXT　文字列
100
AcDbLine
 10
1527.488808939932
 20
328.9623738978989
 30
0.0
 11
1539.780182946357
 21
316.6709998912411
 31
0.0
  0
LINE
  5
24A8E
330
249E1
100
AcDbEntity
  8
D-TTL-TXT　文字列
100
AcDbLine
 10
1528.738779177656
 20
330.0040157627082
 30
0.0
 11
1539.780182946357
 21
318.9626119942404
 31
0.0
  0
LINE
  5
24A8F
330
249E1
100
AcDbEntity
  8
D-TTL-TXT　文字列
100
AcDbLine
 10
1530.197077788645
 20
331.0456576282159
 30
0.0
 11
1540.405168065335
 21
320.8375673516421
 31
0.0
  0
LINE
  5
24A90
330
249E1
100
AcDbEntity
  8
D-TTL-TXT　文字列
100
AcDbLine
 10
1531.655376399867
 20
331.8789711201098
 30
0.0
 11
1540.821824811399
 21
322.7125227083452
 31
0.0
  0
LINE
  5
24A91
330
249E1
100
AcDbEntity
  8
D-TTL-TXT　文字列
100
AcDbLine
 10
1533.322003383655
 20
332.7122846120037
 30
0.0
 11
1541.446809930261
 21
324.3791496924823
 31
0.0
  0
LINE
  5
24A92
330
249E1
100
AcDbEntity
  8
D-TTL-TXT　文字列
100
AcDbLine
 10
1534.988630367676
 20
333.1289413581835
 30
0.0
 11
1542.280123422155
 21
326.0457766762702
 31
0.0
  0
LINE
  5
24A93
330
249E1
100
AcDbEntity
  8
D-TTL-TXT　文字列
100
AcDbLine
 10
1537.488570843474
 20
333.1289413581835
 30
0.0
 11
1543.321765287197
 21
327.2957469141111
 31
0.0
  0
LINE
  5
24A94
330
249E1
100
AcDbEntity
  8
D-TTL-TXT　文字列
100
AcDbLine
 10
1539.780182946357
 20
333.1289413581835
 30
0.0
 11
1544.363407152006
 21
328.5457171521848
 31
0.0
  0
LINE
  5
24A95
330
249E1
100
AcDbEntity
  8
D-TTL-TXT　文字列
100
AcDbLine
 10
1542.071795049123
 20
333.1289413581835
 30
0.0
 11
1545.405049016932
 21
329.7956873903749
 31
0.0
  0
LINE
  5
24A96
330
249E1
100
AcDbEntity
  8
D-TTL-TXT　文字列
100
AcDbLine
 10
1544.363407152006
 20
333.1289413581835
 30
0.0
 11
1546.863347628037
 21
330.8373292551842
 31
0.0
  0
LINE
  5
24A97
330
249E1
100
AcDbEntity
  8
D-TTL-TXT　文字列
100
AcDbLine
 10
1546.863347628037
 20
333.1289413581835
 30
0.0
 11
1548.321646239143
 21
331.6706427468453
 31
0.0
  0
LINE
  5
24A98
330
249E1
100
AcDbEntity
  8
D-TTL-TXT　文字列
100
AcDbLine
 10
1549.154959731037
 20
333.1289413581835
 30
0.0
 11
1549.988273222931
 21
332.503956238972
 31
0.0
  0
LINE
  5
24A99
330
249E1
100
AcDbEntity
  8
D-TTL-TXT　文字列
100
AcDbLine
 10
1551.44657183392
 20
333.1289413581835
 30
0.0
 11
1551.654900206951
 21
333.1289413581835
 31
0.0
  0
LINE
  5
24A9A
330
249E1
100
AcDbEntity
  8
D-TTL-TXT　文字列
100
AcDbLine
 10
1549.988273222931
 20
364.3781973068835
 30
0.0
 11
1550.196601595962
 21
364.3781973068835
 31
0.0
  0
LINE
  5
24A9B
330
249E1
100
AcDbEntity
  8
D-TTL-TXT　文字列
100
AcDbLine
 10
1547.071676000953
 20
365.0031824255129
 30
0.0
 11
1548.529974611942
 21
363.5448838146404
 31
0.0
  0
LINE
  5
24A9C
330
249E1
100
AcDbEntity
  8
D-TTL-TXT　文字列
100
AcDbLine
 10
1544.571735525038
 20
365.2115107987774
 30
0.0
 11
1547.071676000953
 21
362.7115703227464
 31
0.0
  0
LINE
  5
24A9D
330
249E1
100
AcDbEntity
  8
D-TTL-TXT　文字列
100
AcDbLine
 10
1542.071795049123
 20
365.2115107987774
 30
0.0
 11
1545.61337739008
 21
361.669928457588
 31
0.0
  0
LINE
  5
24A9E
330
249E1
100
AcDbEntity
  8
D-TTL-TXT　文字列
100
AcDbLine
 10
1539.780182946357
 20
365.2115107987774
 30
0.0
 11
1544.363407152006
 21
360.6282865927787
 31
0.0
  0
LINE
  5
24A9F
330
249E1
100
AcDbEntity
  8
D-TTL-TXT　文字列
100
AcDbLine
 10
1537.488570843474
 20
365.2115107987774
 30
0.0
 11
1543.321765287197
 21
359.1699879819062
 31
0.0
  0
LINE
  5
24AA0
330
249E1
100
AcDbEntity
  8
D-TTL-TXT　文字列
100
AcDbLine
 10
1535.405287113273
 20
365.0031824255129
 30
0.0
 11
1542.280123422155
 21
357.9200177438324
 31
0.0
  0
LINE
  5
24AA1
330
249E1
100
AcDbEntity
  8
D-TTL-TXT　文字列
100
AcDbLine
 10
1533.53033175657
 20
364.3781973068835
 30
0.0
 11
1541.446809930261
 21
356.4617191333091
 31
0.0
  0
LINE
  5
24AA2
330
249E1
100
AcDbEntity
  8
D-TTL-TXT　文字列
100
AcDbLine
 10
1531.863704772666
 20
363.753212187672
 30
0.0
 11
1540.821824811399
 21
354.795092149172
 31
0.0
  0
LINE
  5
24AA3
330
249E1
100
AcDbEntity
  8
D-TTL-TXT　文字列
100
AcDbLine
 10
1530.405406161677
 20
362.7115703227464
 30
0.0
 11
1540.196839692304
 21
352.9201367921196
 31
0.0
  0
LINE
  5
24AA4
330
249E1
100
AcDbEntity
  8
D-TTL-TXT　文字列
100
AcDbLine
 10
1528.947107550688
 20
361.8782568308525
 30
0.0
 11
1539.780182946357
 21
351.0451814354165
 31
0.0
  0
LINE
  5
24AA5
330
249E1
100
AcDbEntity
  8
D-TTL-TXT　文字列
100
AcDbLine
 10
1527.697137312731
 20
360.8366149660433
 30
0.0
 11
1539.780182946357
 21
348.7535693324171
 31
0.0
  0
LINE
  5
24AA6
330
249E1
100
AcDbEntity
  8
D-TTL-TXT　文字列
100
AcDbLine
 10
1526.655495447805
 20
359.5866447278531
 30
0.0
 11
1539.988511319272
 21
346.2536288563861
 31
0.0
  0
LINE
  5
24AA7
330
249E1
100
AcDbEntity
  8
D-TTL-TXT　文字列
100
AcDbLine
 10
1549.779944849899
 20
333.9622548498446
 30
0.0
 11
1550.613258341793
 21
333.3372697306331
 31
0.0
  0
LINE
  5
24AA8
330
249E1
100
AcDbEntity
  8
D-TTL-TXT　文字列
100
AcDbLine
 10
1525.405525209731
 20
358.3366744897794
 30
0.0
 11
1541.030153184198
 21
342.9203748885775
 31
0.0
  0
LINE
  5
24AA9
330
249E1
100
AcDbEntity
  8
D-TTL-TXT　文字列
100
AcDbLine
 10
1524.780540090985
 20
356.6700475056423
 30
0.0
 11
1548.113317865994
 21
333.3372697306331
 31
0.0
  0
LINE
  5
24AAA
330
249E1
100
AcDbEntity
  8
D-TTL-TXT　文字列
100
AcDbLine
 10
1523.947226598859
 20
355.211748895119
 30
0.0
 11
1545.821705763228
 21
333.3372697306331
 31
0.0
  0
LINE
  5
24AAB
330
249E1
100
AcDbEntity
  8
D-TTL-TXT　文字列
100
AcDbLine
 10
1523.322241479996
 20
353.3367935378337
 30
0.0
 11
1543.530093660112
 21
333.3372697306331
 31
0.0
  0
LINE
  5
24AAC
330
249E1
100
AcDbEntity
  8
D-TTL-TXT　文字列
100
AcDbLine
 10
1522.905584733933
 20
351.4618381813634
 30
0.0
 11
1541.238481557229
 21
333.3372697306331
 31
0.0
  0
LINE
  5
24AAD
330
249E1
100
AcDbEntity
  8
D-TTL-TXT　文字列
100
AcDbLine
 10
1522.697256361134
 20
349.3785544512793
 30
0.0
 11
1538.738541081198
 21
333.3372697306331
 31
0.0
  0
LINE
  5
24AAE
330
249E1
100
AcDbEntity
  8
D-TTL-TXT　文字列
100
AcDbLine
 10
1522.905584733933
 20
346.6702856021002
 30
0.0
 11
1536.446928978432
 21
333.3372697306331
 31
0.0
  0
LINE
  5
24AAF
330
249E1
100
AcDbEntity
  8
D-TTL-TXT　文字列
100
AcDbLine
 10
1523.738898225943
 20
343.7536883804714
 30
0.0
 11
1533.53033175657
 21
333.7539264768129
 31
0.0
  0
LINE
  5
24AB0
330
249E1
100
AcDbEntity
  8
D-TTL-TXT　文字列
100
AcDbLine
 10
1523.947226598859
 20
355.0034205218544
 30
0.0
 11
1532.905346637475
 21
364.1698689338519
 31
0.0
  0
LINE
  5
24AB1
330
249E1
100
AcDbEntity
  8
D-TTL-TXT　文字列
100
AcDbLine
 10
1522.905584733933
 20
351.6701665540459
 30
0.0
 11
1536.2386006054
 21
365.0031824255129
 31
0.0
  0
LINE
  5
24AB2
330
249E1
100
AcDbEntity
  8
D-TTL-TXT　文字列
100
AcDbLine
 10
1522.697256361134
 20
349.170226078364
 30
0.0
 11
1538.738541081198
 21
365.2115107987774
 31
0.0
  0
LINE
  5
24AB3
330
249E1
100
AcDbEntity
  8
D-TTL-TXT　文字列
100
AcDbLine
 10
1522.905584733933
 20
346.8786139753647
 30
0.0
 11
1541.238481557229
 21
365.2115107987774
 31
0.0
  0
LINE
  5
24AB4
330
249E1
100
AcDbEntity
  8
D-TTL-TXT　文字列
100
AcDbLine
 10
1523.322241479996
 20
345.0036586183123
 30
0.0
 11
1543.530093660112
 21
365.2115107987774
 31
0.0
  0
LINE
  5
24AB5
330
249E1
100
AcDbEntity
  8
D-TTL-TXT　文字列
100
AcDbLine
 10
1523.738898225943
 20
343.128703261842
 30
0.0
 11
1545.61337739008
 21
365.0031824255129
 31
0.0
  0
LINE
  5
24AB6
330
249E1
100
AcDbEntity
  8
D-TTL-TXT　文字列
100
AcDbLine
 10
1524.572211717837
 20
341.6704046503874
 30
0.0
 11
1547.904989492846
 21
364.7948540528305
 31
0.0
  0
LINE
  5
24AB7
330
249E1
100
AcDbEntity
  8
D-TTL-TXT　文字列
100
AcDbLine
 10
1549.154959731037
 20
363.753212187672
 30
0.0
 11
1549.779944849899
 21
364.5865256795659
 31
0.0
  0
LINE
  5
24AB8
330
249E1
100
AcDbEntity
  8
D-TTL-TXT　文字列
100
AcDbLine
 10
1525.405525209731
 20
340.0037776663666
 30
0.0
 11
1541.446809930261
 21
356.0450623870129
 31
0.0
  0
LINE
  5
24AB9
330
249E1
100
AcDbEntity
  8
D-TTL-TXT　文字列
100
AcDbLine
 10
1526.44716707489
 20
338.7538074285258
 30
0.0
 11
1540.196839692304
 21
352.5034800461726
 31
0.0
  0
LINE
  5
24ABA
330
249E1
100
AcDbEntity
  8
D-TTL-TXT　文字列
100
AcDbLine
 10
1527.488808939932
 20
337.5038371909177
 30
0.0
 11
1539.780182946357
 21
349.7952111975755
 31
0.0
  0
LINE
  5
24ABB
330
249E1
100
AcDbEntity
  8
D-TTL-TXT　文字列
100
AcDbLine
 10
1528.738779177656
 20
336.4621953261085
 30
0.0
 11
1539.780182946357
 21
347.5035990945762
 31
0.0
  0
LINE
  5
24ABC
330
249E1
100
AcDbEntity
  8
D-TTL-TXT　文字列
100
AcDbLine
 10
1530.197077788645
 20
335.42055346095
 30
0.0
 11
1540.405168065335
 21
345.6286437371746
 31
0.0
  0
LINE
  5
24ABD
330
249E1
100
AcDbEntity
  8
D-TTL-TXT　文字列
100
AcDbLine
 10
1531.655376399867
 20
334.5872399687069
 30
0.0
 11
1540.821824811399
 21
343.7536883804714
 31
0.0
  0
LINE
  5
24ABE
330
249E1
100
AcDbEntity
  8
D-TTL-TXT　文字列
100
AcDbLine
 10
1533.322003383655
 20
333.7539264768129
 30
0.0
 11
1541.446809930261
 21
342.0870613966836
 31
0.0
  0
LINE
  5
24ABF
330
249E1
100
AcDbEntity
  8
D-TTL-TXT　文字列
100
AcDbLine
 10
1534.988630367676
 20
333.3372697306331
 30
0.0
 11
1542.280123422155
 21
340.4204344125465
 31
0.0
  0
LINE
  5
24AC0
330
249E1
100
AcDbEntity
  8
D-TTL-TXT　文字列
100
AcDbLine
 10
1537.488570843474
 20
333.3372697306331
 30
0.0
 11
1543.321765287197
 21
339.1704641747056
 31
0.0
  0
LINE
  5
24AC1
330
249E1
100
AcDbEntity
  8
D-TTL-TXT　文字列
100
AcDbLine
 10
1539.780182946357
 20
333.3372697306331
 30
0.0
 11
1544.363407152006
 21
337.9204939366318
 31
0.0
  0
LINE
  5
24AC2
330
249E1
100
AcDbEntity
  8
D-TTL-TXT　文字列
100
AcDbLine
 10
1542.071795049123
 20
333.3372697306331
 30
0.0
 11
1545.405049016932
 21
336.6705236984417
 31
0.0
  0
LINE
  5
24AC3
330
249E1
100
AcDbEntity
  8
D-TTL-TXT　文字列
100
AcDbLine
 10
1544.363407152006
 20
333.3372697306331
 30
0.0
 11
1546.863347628037
 21
335.6288818336325
 31
0.0
  0
LINE
  5
24AC4
330
249E1
100
AcDbEntity
  8
D-TTL-TXT　文字列
100
AcDbLine
 10
1546.863347628037
 20
333.3372697306331
 30
0.0
 11
1548.321646239143
 21
334.7955683419714
 31
0.0
  0
LINE
  5
24AC5
330
249E1
100
AcDbEntity
  8
D-TTL-TXT　文字列
100
AcDbLine
 10
1549.154959731037
 20
333.3372697306331
 30
0.0
 11
1549.988273222931
 21
333.9622548498446
 31
0.0
  0
LINE
  5
24AC6
330
249E1
100
AcDbEntity
  8
D-TTL-TXT　文字列
100
AcDbLine
 10
1551.44657183392
 20
333.3372697306331
 30
0.0
 11
1551.654900206951
 21
333.3372697306331
 31
0.0
  0
ELLIPSE
  5
24AC7
330
249E1
100
AcDbEntity
  8
D-TTL-TXT　文字列
100
AcDbEllipse
 10
1539.109705243725
 20
317.486048485036
 30
0.0
 11
-11.59204140070329
 21
11.59204140070329
 31
0.0
210
0.0
220
0.0
230
0.9999999999999998
 40
0.9999999999999724
 41
-0.520066264098869
 42
2.090862590893738
  0
ELLIPSE
  5
24AC8
330
249E1
100
AcDbEntity
  8
D-TTL-TXT　文字列
100
AcDbEllipse
 10
1516.997689402313
 20
375.9114366981667
 30
0.0
 11
-59.00941204809056
 21
59.00941204809056
 31
0.0
210
0.0
220
0.0
230
0.9999999999999998
 40
0.9999999999999877
 41
2.977667909397149
 42
3.391179326840918
  0
ELLIPSE
  5
24AC9
330
249E1
100
AcDbEntity
  8
D-TTL-TXT　文字列
100
AcDbEllipse
 10
1541.186083304929
 20
348.2217784944223
 30
0.0
 11
33.22705288064931
 21
33.22705288064927
 31
0.0
210
0.0
220
0.0
230
1.0
 40
0.9999999999999925
 41
3.790898628936649
 42
4.472976128049419
  0
ELLIPSE
  5
24ACA
330
249E1
100
AcDbEntity
  8
D-TTL-TXT　文字列
100
AcDbEllipse
 10
1516.997689402313
 20
290.7005320872413
 30
0.0
 11
59.00941204809056
 21
59.00941204809056
 31
0.0
210
0.0
220
0.0
230
0.9999999999999998
 40
0.9999999999999884
 41
6.033598633928461
 42
6.447110051372229
  0
ELLIPSE
  5
24ACB
330
249E1
100
AcDbEntity
  8
D-TTL-TXT　文字列
100
AcDbEllipse
 10
1541.186083304929
 20
318.3901902901707
 30
0.0
 11
-33.22705288064927
 21
33.22705288064931
 31
0.0
210
0.0
220
0.0
230
1.0
 40
0.9999999999999925
 41
-1.331383474459625
 42
-0.6493059753468562
  0
ELLIPSE
  5
24ACC
330
249E1
100
AcDbEntity
  8
D-TTL-TXT　文字列
100
AcDbEllipse
 10
1539.109705243725
 20
349.1259201329667
 30
0.0
 11
-11.59204140070329
 21
11.59204140070329
 31
0.0
210
0.0
220
0.0
230
0.9999999999999998
 40
0.9999999999999724
 41
-0.520066264098869
 42
2.090862590893738
  0
ELLIPSE
  5
24ACD
330
249E1
100
AcDbEntity
  8
D-TTL-TXT　文字列
100
AcDbEllipse
 10
1556.226360192755
 20
317.486048485036
 30
0.0
 11
-11.59204140070329
 21
11.59204140070329
 31
0.0
210
0.0
220
0.0
230
0.9999999999999998
 40
0.9999999999999724
 41
-0.520066264098869
 42
2.090862590893738
  0
ELLIPSE
  5
24ACE
330
249E1
100
AcDbEntity
  8
D-TTL-TXT　文字列
100
AcDbEllipse
 10
1534.114344350993
 20
375.9114366981667
 30
0.0
 11
59.0094120480915
 21
59.0094120480915
 31
0.0
210
0.0
220
0.0
230
1.0
 40
0.9999999999999827
 41
4.548464236192048
 42
4.961975653635807
  0
ELLIPSE
  5
24ACF
330
249E1
100
AcDbEntity
  8
D-TTL-TXT　文字列
100
AcDbEllipse
 10
1558.302738253726
 20
348.2217784944223
 30
0.0
 11
33.22705288064907
 21
33.22705288064907
 31
0.0
210
0.0
220
0.0
230
1.0
 40
0.9999999999999934
 41
3.790898628936649
 42
4.472976128049413
  0
ELLIPSE
  5
24AD0
330
249E1
100
AcDbEntity
  8
D-TTL-TXT　文字列
100
AcDbEllipse
 10
1534.114344350993
 20
290.7005320872413
 30
0.0
 11
-59.0094120480915
 21
59.0094120480915
 31
0.0
210
0.0
220
0.0
230
1.0
 40
0.9999999999999824
 41
4.462802307133571
 42
4.876313724577331
  0
ELLIPSE
  5
24AD1
330
249E1
100
AcDbEntity
  8
D-TTL-TXT　文字列
100
AcDbEllipse
 10
1558.302738253726
 20
318.3901902901707
 30
0.0
 11
-33.22705288064911
 21
33.22705288064911
 31
0.0
210
0.0
220
0.0
230
0.9999999999999998
 40
0.9999999999999928
 41
-1.331383474459621
 42
-0.649305975346856
  0
ELLIPSE
  5
24AD2
330
249E1
100
AcDbEntity
  8
D-TTL-TXT　文字列
100
AcDbEllipse
 10
1556.226360192755
 20
349.1259201329667
 30
0.0
 11
-11.59204140070329
 21
11.59204140070329
 31
0.0
210
0.0
220
0.0
230
0.9999999999999998
 40
0.9999999999999724
 41
-0.520066264098869
 42
2.090862590893738
  0
LWPOLYLINE
  5
24AD3
330
249E1
100
AcDbEntity
  8
D-TTL-LINE　区切り線、罫線
100
AcDbPolyline
 90
        4
 70
     1
 43
0.0
 10
3689.612088690279
 20
329.9999934096122
 10
3889.612088690396
 20
329.9999934096122
 10
3889.612088690279
 20
199.9999934096122
 10
3689.612088690279
 20
199.9999934096122
  0
TEXT
  5
24AD4
330
249E1
100
AcDbEntity
  8
D-TTL-TXT　文字列
100
AcDbText
 10
1948.798774947645
 20
226.1863540627528
 30
0.0
 40
18.0
  1
FAX （0776） 56-0917
  7
YOKO_GOTHIC
100
AcDbText
  0
TEXT
  5
24AD5
330
249E1
100
AcDbEntity
  8
D-TTL-TXT　文字列
100
AcDbText
 10
1948.798774947645
 20
259.7684724899009
 30
0.0
 40
18.0
  1
TEL （0776） 56-2310 （代）
  7
YOKO_GOTHIC
100
AcDbText
  0
TEXT
  5
24AD6
330
249E1
100
AcDbEntity
  8
D-TTL-TXT　文字列
100
AcDbText
 10
1508.511774038546
 20
226.1863372611115
 30
0.0
 40
18.0
  1
福井市石盛町 20-408
  7
YOKO_GOTHIC
100
AcDbText
  0
TEXT
  5
24AD7
330
249E1
100
AcDbEntity
  8
D-TTL-TXT　文字列
100
AcDbText
 10
1508.146751012187
 20
259.7688372615958
 30
0.0
 40
18.0
  1
福井県知事許可 （特） 第 3522号
  7
YOKO_GOTHIC
100
AcDbText
  0
TEXT
  5
24AD8
330
249E1
100
AcDbEntity
  8
D-TTL-TXT　文字列
100
AcDbText
 10
1611.132283715997
 20
313.1896628773538
 30
0.0
 40
50.0
  1
上屋敷工業株式会社
  7
YOKO_GOTHIC
100
AcDbText
  0
TEXT
  5
24AD9
330
249E1
100
AcDbEntity
  8
D-TTL-TXT　文字列
100
AcDbText
 10
3903.817498851568
 20
343.4350704764947
 30
0.0
 40
35.0
  1
No.
  7
YOKO_GOTHIC
100
AcDbText
  0
LWPOLYLINE
  5
24ADA
330
249E1
100
AcDbEntity
  8
D-TTL　外枠
100
AcDbPolyline
 90
        4
 70
     1
 43
0.0
 10
-0.0000325215514749
 20
-0.0000065903877839
 10
4199.999967478448
 20
-0.0000065903877839
 10
4199.999967478448
 20
2969.999993409612
 10
-0.0000325215514749
 20
2969.999993409612
  0
LWPOLYLINE
  5
24ADB
330
249E1
100
AcDbEntity
  8
D-TTL　外枠
100
AcDbPolyline
 90
        4
 70
     1
 43
0.0
 10
199.9999674784485
 20
199.9999934096122
 10
3999.999967478448
 20
199.9999934096122
 10
3999.999967478448
 20
2769.999993409613
 10
199.9999674784485
 20
2769.999993409613
  0
ATTDEF
  5
24ADC
330
249E1
100
AcDbEntity
  8
D-TTL-TXT　文字列
 48
0.5
100
AcDbText
 10
2801.941157776051
 20
324.2764234799758
 30
0.0
 40
35.0
  1
-
 41
0.8
  7
YOKO_GOTHIC
 72
     1
 11
2811.037604476558
 21
317.8804843936814
 31
0.0
100
AcDbAttributeDefinition
  3
表題 １
  2
PROJECT1
 70
     0
 74
     1
  0
ATTDEF
  5
24ADD
330
249E1
100
AcDbEntity
  8
D-TTL-TXT　文字列
 48
0.5
100
AcDbText
 10
2801.941157776051
 20
229.5167438914866
 30
0.0
 40
35.0
  1
-
 41
0.8
  7
YOKO_GOTHIC
 72
     1
 11
2811.037604476558
 21
223.1208048051922
 31
0.0
100
AcDbAttributeDefinition
  3
表題 ２
  2
PROJECT2
 70
     0
 74
     1
  0
ATTDEF
  5
24ADE
330
249E1
100
AcDbEntity
  8
D-TTL-TXT　文字列
 48
0.5
100
AcDbText
 10
3577.957123345964
 20
344.5921891440737
 30
0.0
 40
35.0
  1
2011／05／01
 41
0.8
  7
YOKO_GOTHIC
 72
     1
 11
3687.114483752055
 21
338.1962500577793
 31
0.0
100
AcDbAttributeDefinition
  3
日付
  2
DATE
 70
     0
 74
     1
  0
ATTDEF
  5
24ADF
330
249E1
100
AcDbEntity
  8
D-TTL-TXT　文字列
 48
0.5
100
AcDbText
 10
3204.015372773053
 20
251.5736562506861
 30
0.0
 40
35.0
  1
-
 41
0.8
  7
YOKO_GOTHIC
 72
     1
 11
3213.111819473561
 21
245.1777171643917
 31
0.0
100
AcDbAttributeDefinition
  3
縮尺
  2
SCALE
 70
     0
 74
     1
  0
ATTDEF
  5
24AE0
330
249E1
100
AcDbEntity
  8
D-TTL-TXT　文字列
 48
0.5
100
AcDbText
 10
3936.186799671155
 20
263.0771701313421
 30
0.0
 40
35.0
  1
.
 41
0.8
  7
YOKO_GOTHIC
 72
     1
 11
3945.283246371662
 21
256.6812310450477
 31
0.0
100
AcDbAttributeDefinition
  3
図番
  2
DWGNO
 70
     0
 74
     1
  0
ATTDEF
  5
24AE1
330
249E1
100
AcDbEntity
  8
D-TTL-TXT　文字列
 48
0.5
100
AcDbText
 10
3381.52271494584
 20
220.4464765787923
 30
0.0
 40
35.0
  1
.
 41
0.8
  7
YOKO_GOTHIC
 72
     1
 11
3390.619161646347
 21
214.0505374924978
 31
0.0
100
AcDbAttributeDefinition
  3
作成者
  2
DRAWN
 70
     0
 74
     1
  0
ATTDEF
  5
24AE2
330
249E1
100
AcDbEntity
  8
D-TTL-TXT　文字列
 48
0.5
100
AcDbText
 10
3579.655508141036
 20
220.4464765787923
 30
0.0
 40
35.0
  1
.
 41
0.8
  7
YOKO_GOTHIC
 72
     1
 11
3588.751954841544
 21
214.0505374924978
 31
0.0
100
AcDbAttributeDefinition
  3
検図者
  2
CHECKED
 70
     8
 74
     1
  0
ATTDEF
  5
24AE3
330
249E1
100
AcDbEntity
  8
D-TTL-TXT　文字列
 48
0.5
100
AcDbText
 10
3781.668762849647
 20
220.4464765787923
 30
0.0
 40
35.0
  1
.
 41
0.8
  7
YOKO_GOTHIC
 72
     1
 11
3790.765209550155
 21
214.0505374924978
 31
0.0
100
AcDbAttributeDefinition
  3
承認
  2
APPROVED
 70
     8
 74
     1
  0
TEXT
  5
24AE4
330
249E1
100
AcDbEntity
  8
D-TTL-TXT　文字列
100
AcDbText
 10
3330.732016192866
 20
283.6102128210478
 30
0.0
 40
35.0
  1
作 図
  7
YOKO_GOTHIC
100
AcDbText
  0
TEXT
  5
24AE5
330
249E1
100
AcDbEntity
  8
D-TTL-TXT　文字列
100
AcDbText
 10
3531.271542972536
 20
283.6102128210478
 30
0.0
 40
35.0
  1
検 図
  7
YOKO_GOTHIC
100
AcDbText
  0
TEXT
  5
24AE6
330
249E1
100
AcDbEntity
  8
D-TTL-TXT　文字列
100
AcDbText
 10
3726.764597849804
 20
283.6102128210478
 30
0.0
 40
35.0
  1
承 認
  7
YOKO_GOTHIC
100
AcDbText
  0
ENDBLK
  5
24AE7
330
249E1
100
AcDbEntity
  8
0
100
AcDbBlockEnd
  0
BLOCK
  5
2962A
330
29629
100
AcDbEntity
  8
0
100
AcDbBlockBegin
  2
_None
 70
     0
 10
0.0
 20
0.0
 30
0.0
  3
_None
  1

  0
ENDBLK
  5
2962B
330
29629
100
AcDbEntity
  8
0
100
AcDbBlockEnd
  0
BLOCK
  5
2FB92
330
2FB91
100
AcDbEntity
  8
0
100
AcDbBlockBegin
  2
AS-400
 70
     0
 10
-5200.0
 20
-2000.0
 30
0.0
  3
AS-400
  1

  0
LWPOLYLINE
  5
2FB93
330
2FB91
100
AcDbEntity
  8
LAYER12
  6
Continuous
 62
     0
100
AcDbPolyline
 90
       35
 70
     1
 43
0.0
 10
-5598.0
 20
-2051.0
 10
-5598.0
 20
-2037.99995
 10
-5598.0
 20
-2025.99995
 10
-5596.99995
 20
-2018.0
 10
-5595.999899999999
 20
-2012.0
 10
-5593.99995
 20
-2007.99995
 10
-5592.0
 20
-2007.00005
 10
-5589.0
 20
-2004.99995
 10
-5584.99995
 20
-2004.00005
 10
-5578.99995
 20
-2003.0
 10
-5571.9999
 20
-2001.99995
 10
-5565.9999
 20
-2001.99995
 10
-5559.0
 20
-2003.0
 10
-5553.0
 20
-2004.99995
 10
-5547.9999
 20
-2007.00005
 10
-5541.9999
 20
-2009.0
 10
-5538.0
 20
-2013.00005
 10
-5535.0
 20
-2019.00005
 10
-5533.999950000001
 20
-2025.99995
 10
-5533.999950000001
 20
-2034.00005
 10
-5533.999950000001
 20
-2043.00005
 10
-5536.999950000001
 20
-2052.99995
 10
-5539.999950000001
 20
-2061.99995
 10
-5544.9999
 20
-2070.00005
 10
-5550.9999
 20
-2076.00005
 10
-5557.999950000001
 20
-2081.0
 10
-5565.9999
 20
-2085.99995
 10
-5572.99995
 20
-2088.99995
 10
-5578.99995
 20
-2091.00005
 10
-5583.9999
 20
-2091.99995
 10
-5587.99995
 20
-2091.00005
 10
-5592.0
 20
-2088.99995
 10
-5595.0
 20
-2084.0
 10
-5596.99995
 20
-2076.00005
 10
-5598.0
 20
-2064.99995
  0
LWPOLYLINE
  5
2FB94
330
2FB91
100
AcDbEntity
  8
LAYER12
  6
Continuous
 62
     0
100
AcDbPolyline
 90
       35
 70
     1
 43
0.0
 10
-5580.9999
 20
-2096.0
 10
-5574.9999
 20
-2093.0
 10
-5568.0
 20
-2091.00005
 10
-5562.0
 20
-2090.0
 10
-5556.0
 20
-2090.0
 10
-5550.0
 20
-2091.00005
 10
-5544.9999
 20
-2094.00005
 10
-5541.0
 20
-2097.00005
 10
-5536.999950000001
 20
-2100.99995
 10
-5532.9999
 20
-2106.00005
 10
-5529.999899999999
 20
-2112.00005
 10
-5529.0
 20
-2118.99995
 10
-5527.99995
 20
-2127.00005
 10
-5527.99995
 20
-2133.99995
 10
-5529.999899999999
 20
-2142.00005
 10
-5532.0
 20
-2150.0
 10
-5535.9999
 20
-2159.0
 10
-5538.9999
 20
-2166.00005
 10
-5541.9999
 20
-2172.99995
 10
-5545.99995
 20
-2180.0
 10
-5548.99995
 20
-2184.99995
 10
-5553.9999
 20
-2190.00005
 10
-5559.0
 20
-2193.99995
 10
-5565.0
 20
-2196.99995
 10
-5571.9999
 20
-2198.0
 10
-5578.99995
 20
-2198.0
 10
-5586.9999
 20
-2196.00005
 10
-5592.9999
 20
-2190.00005
 10
-5596.99995
 20
-2181.00005
 10
-5598.999899999999
 20
-2168.0
 10
-5598.999899999999
 20
-2151.00005
 10
-5598.0
 20
-2135.0
 10
-5595.999899999999
 20
-2121.000050000001
 10
-5592.9999
 20
-2109.99995
 10
-5587.99995
 20
-2102.0
  0
LWPOLYLINE
  5
2FB95
330
2FB91
100
AcDbEntity
  8
LAYER12
  6
Continuous
 62
     0
100
AcDbPolyline
 90
       35
 70
     1
 43
0.0
 10
-5547.0
 20
-2085.99995
 10
-5547.9999
 20
-2084.0
 10
-5547.9999
 20
-2081.0
 10
-5547.0
 20
-2076.99995
 10
-5544.9999
 20
-2072.0
 10
-5541.0
 20
-2066.0
 10
-5538.0
 20
-2061.00005
 10
-5533.999950000001
 20
-2057.0
 10
-5529.999899999999
 20
-2054.0
 10
-5524.99995
 20
-2052.00005
 10
-5520.0
 20
-2051.0
 10
-5515.999950000001
 20
-2052.00005
 10
-5511.0
 20
-2054.0
 10
-5505.999899999999
 20
-2057.0
 10
-5500.99995
 20
-2061.00005
 10
-5494.99995
 20
-2066.0
 10
-5490.9999
 20
-2073.00005
 10
-5487.9999
 20
-2079.99995
 10
-5485.99995
 20
-2087.0
 10
-5485.99995
 20
-2096.0
 10
-5487.0
 20
-2103.99995
 10
-5490.0
 20
-2112.99995
 10
-5493.0
 20
-2118.99995
 10
-5497.99995
 20
-2121.99995
 10
-5502.999899999999
 20
-2124.00005
 10
-5508.9999
 20
-2123.0
 10
-5515.999950000001
 20
-2121.000050000001
 10
-5521.999950000001
 20
-2118.99995
 10
-5526.999899999999
 20
-2115.00005
 10
-5532.0
 20
-2111.0
 10
-5535.0
 20
-2105.0
 10
-5538.9999
 20
-2100.00005
 10
-5541.9999
 20
-2096.0
 10
-5544.0
 20
-2091.99995
 10
-5545.99995
 20
-2088.99995
  0
LWPOLYLINE
  5
2FB96
330
2FB91
100
AcDbEntity
  8
LAYER12
  6
Continuous
 62
     0
100
AcDbPolyline
 90
       35
 70
     1
 43
0.0
 10
-5526.999899999999
 20
-2048.0
 10
-5529.0
 20
-2046.99995
 10
-5529.999899999999
 20
-2043.00005
 10
-5530.99995
 20
-2037.99995
 10
-5532.0
 20
-2031.99995
 10
-5532.0
 20
-2024.0
 10
-5530.99995
 20
-2016.99995
 10
-5526.0
 20
-2010.99995
 10
-5517.9999
 20
-2006.0
 10
-5505.0
 20
-2004.00005
 10
-5487.9999
 20
-2001.99995
 10
-5472.0
 20
-2003.0
 10
-5458.99995
 20
-2004.99995
 10
-5449.99995
 20
-2009.0
 10
-5443.999950000001
 20
-2013.99995
 10
-5442.0
 20
-2021.0
 10
-5442.9999
 20
-2028.99995
 10
-5445.0
 20
-2036.0
 10
-5448.0
 20
-2042.0
 10
-5451.9999
 20
-2046.00005
 10
-5457.0
 20
-2049.99995
 10
-5463.0
 20
-2054.0
 10
-5469.0
 20
-2055.99995
 10
-5475.0
 20
-2058.00005
 10
-5481.0
 20
-2058.99995
 10
-5485.99995
 20
-2058.00005
 10
-5491.99995
 20
-2058.00005
 10
-5496.9999
 20
-2057.0
 10
-5502.999899999999
 20
-2057.0
 10
-5508.0
 20
-2055.99995
 10
-5511.9999
 20
-2054.0
 10
-5517.0
 20
-2052.99995
 10
-5520.999899999999
 20
-2052.00005
 10
-5523.999899999999
 20
-2051.0
 10
-5526.0
 20
-2049.99995
  0
LWPOLYLINE
  5
2FB97
330
2FB91
100
AcDbEntity
  8
LAYER12
  6
Continuous
 62
     0
100
AcDbPolyline
 90
       40
 70
     1
 43
0.0
 10
-5541.0
 20
-2192.0
 10
-5542.999950000001
 20
-2187.99995
 10
-5542.999950000001
 20
-2183.0
 10
-5541.9999
 20
-2177.0
 10
-5541.0
 20
-2169.99995
 10
-5536.999950000001
 20
-2162.0
 10
-5533.999950000001
 20
-2154.99995
 10
-5529.999899999999
 20
-2148.00005
 10
-5526.0
 20
-2142.00005
 10
-5521.999950000001
 20
-2138.0
 10
-5517.0
 20
-2133.99995
 10
-5512.999950000001
 20
-2132.0
 10
-5508.9999
 20
-2129.0
 10
-5503.99995
 20
-2126.0
 10
-5499.0
 20
-2124.00005
 10
-5493.9999
 20
-2121.000050000001
 10
-5490.0
 20
-2120.0
 10
-5484.9999
 20
-2118.99995
 10
-5481.0
 20
-2118.99995
 10
-5476.99995
 20
-2120.0
 10
-5472.9999
 20
-2121.000050000001
 10
-5469.9999
 20
-2124.00005
 10
-5466.9999
 20
-2127.99995
 10
-5463.9999
 20
-2133.00005
 10
-5461.99995
 20
-2139.00005
 10
-5460.0
 20
-2145.99995
 10
-5458.99995
 20
-2154.00005
 10
-5458.99995
 20
-2160.99995
 10
-5458.99995
 20
-2169.00005
 10
-5460.0
 20
-2175.99995
 10
-5461.99995
 20
-2181.99995
 10
-5466.0
 20
-2189.0
 10
-5472.0
 20
-2193.99995
 10
-5479.99995
 20
-2196.99995
 10
-5490.0
 20
-2199.00005
 10
-5502.0
 20
-2199.99995
 10
-5514.9999
 20
-2199.99995
 10
-5524.99995
 20
-2199.99995
 10
-5532.9999
 20
-2198.0
 10
-5538.0
 20
-2196.00005
  0
LWPOLYLINE
  5
2FB98
330
2FB91
100
AcDbEntity
  8
LAYER12
  6
Continuous
 62
     0
100
AcDbPolyline
 90
       35
 70
     1
 43
0.0
 10
-5473.99995
 20
-2118.00005
 10
-5476.99995
 20
-2117.0
 10
-5479.99995
 20
-2112.99995
 10
-5481.999899999999
 20
-2108.0
 10
-5484.0
 20
-2100.00005
 10
-5484.9999
 20
-2088.99995
 10
-5485.99995
 20
-2079.00005
 10
-5484.0
 20
-2070.99995
 10
-5481.0
 20
-2064.00005
 10
-5475.9999
 20
-2058.99995
 10
-5469.0
 20
-2055.99995
 10
-5461.99995
 20
-2055.00005
 10
-5455.99995
 20
-2054.0
 10
-5449.99995
 20
-2054.0
 10
-5443.999950000001
 20
-2055.99995
 10
-5439.0
 20
-2057.0
 10
-5436.0
 20
-2061.00005
 10
-5431.99995
 20
-2064.99995
 10
-5430.0
 20
-2070.99995
 10
-5428.999950000001
 20
-2078.0
 10
-5427.999899999999
 20
-2085.99995
 10
-5428.999950000001
 20
-2094.99995
 10
-5430.0
 20
-2102.0
 10
-5431.99995
 20
-2109.00005
 10
-5433.999899999999
 20
-2114.0
 10
-5436.999899999999
 20
-2117.0
 10
-5440.999950000001
 20
-2120.0
 10
-5445.0
 20
-2121.99995
 10
-5448.9999
 20
-2123.0
 10
-5452.99995
 20
-2123.0
 10
-5455.99995
 20
-2121.99995
 10
-5460.0
 20
-2121.000050000001
 10
-5463.9999
 20
-2120.0
 10
-5467.999950000001
 20
-2120.0
 10
-5470.99995
 20
-2118.99995
  0
LWPOLYLINE
  5
2FB99
330
2FB91
100
AcDbEntity
  8
LAYER12
  6
Continuous
 62
     0
100
AcDbPolyline
 90
       35
 70
     1
 43
0.0
 10
-5452.99995
 20
-2195.0
 10
-5454.9999
 20
-2193.00005
 10
-5457.0
 20
-2189.0
 10
-5457.9999
 20
-2183.0
 10
-5457.9999
 20
-2175.00005
 10
-5457.9999
 20
-2165.0
 10
-5457.9999
 20
-2156.0
 10
-5457.0
 20
-2147.0
 10
-5455.99995
 20
-2139.99995
 10
-5452.99995
 20
-2135.0
 10
-5449.99995
 20
-2130.00005
 10
-5446.999950000001
 20
-2127.00005
 10
-5442.9999
 20
-2124.99995
 10
-5437.99995
 20
-2123.0
 10
-5433.0
 20
-2121.000050000001
 10
-5427.0
 20
-2120.0
 10
-5421.9999
 20
-2121.000050000001
 10
-5415.9999
 20
-2121.99995
 10
-5412.0
 20
-2124.99995
 10
-5406.999899999999
 20
-2129.0
 10
-5403.0
 20
-2133.99995
 10
-5400.0
 20
-2141.0
 10
-5397.9999
 20
-2148.00005
 10
-5397.0
 20
-2156.0
 10
-5397.0
 20
-2165.0
 10
-5397.0
 20
-2174.0
 10
-5400.0
 20
-2183.0
 10
-5403.0
 20
-2190.00005
 10
-5409.0
 20
-2195.0
 10
-5415.9999
 20
-2198.0
 10
-5424.0
 20
-2199.00005
 10
-5433.0
 20
-2199.00005
 10
-5440.999950000001
 20
-2199.00005
 10
-5445.9999
 20
-2198.0
 10
-5451.0
 20
-2196.99995
  0
LWPOLYLINE
  5
2FB9A
330
2FB91
100
AcDbEntity
  8
LAYER12
  6
Continuous
 62
     0
100
AcDbPolyline
 90
       35
 70
     1
 43
0.0
 10
-5427.999899999999
 20
-2003.0
 10
-5433.999899999999
 20
-2004.99995
 10
-5436.999899999999
 20
-2007.99995
 10
-5439.9999
 20
-2013.00005
 10
-5442.0
 20
-2019.99995
 10
-5442.0
 20
-2028.00005
 10
-5442.0
 20
-2037.00005
 10
-5440.999950000001
 20
-2045.0
 10
-5439.0
 20
-2052.99995
 10
-5434.99995
 20
-2060.0
 10
-5430.999899999999
 20
-2064.99995
 10
-5427.0
 20
-2070.00005
 10
-5421.9999
 20
-2073.99995
 10
-5415.9999
 20
-2076.99995
 10
-5409.999899999999
 20
-2078.0
 10
-5403.0
 20
-2076.99995
 10
-5397.0
 20
-2076.00005
 10
-5391.0
 20
-2073.00005
 10
-5386.99995
 20
-2069.0
 10
-5382.9999
 20
-2064.00005
 10
-5379.0
 20
-2057.0
 10
-5376.9999
 20
-2049.99995
 10
-5376.0
 20
-2043.00005
 10
-5376.0
 20
-2036.0
 10
-5376.9999
 20
-2028.00005
 10
-5377.99995
 20
-2019.99995
 10
-5380.99995
 20
-2013.99995
 10
-5385.0
 20
-2007.99995
 10
-5388.999899999999
 20
-2004.99995
 10
-5394.0
 20
-2001.99995
 10
-5398.99995
 20
-2001.00005
 10
-5404.99995
 20
-2001.99995
 10
-5410.99995
 20
-2001.99995
 10
-5416.999950000001
 20
-2001.99995
 10
-5422.999950000001
 20
-2003.0
  0
LWPOLYLINE
  5
2FB9B
330
2FB91
100
AcDbEntity
  8
LAYER12
  6
Continuous
 62
     0
100
AcDbPolyline
 90
       35
 70
     1
 43
0.0
 10
-5415.9999
 20
-2082.99995
 10
-5418.9999
 20
-2085.00005
 10
-5421.9999
 20
-2087.0
 10
-5424.0
 20
-2091.00005
 10
-5424.9999
 20
-2096.0
 10
-5425.999950000001
 20
-2100.99995
 10
-5427.0
 20
-2106.99995
 10
-5425.999950000001
 20
-2112.99995
 10
-5422.999950000001
 20
-2117.0
 10
-5418.9999
 20
-2121.000050000001
 10
-5413.99995
 20
-2123.0
 10
-5409.0
 20
-2124.99995
 10
-5403.0
 20
-2127.00005
 10
-5397.9999
 20
-2127.00005
 10
-5391.9999
 20
-2126.0
 10
-5385.9999
 20
-2124.00005
 10
-5380.99995
 20
-2121.99995
 10
-5376.9999
 20
-2118.00005
 10
-5373.9999
 20
-2112.99995
 10
-5371.999950000001
 20
-2108.0
 10
-5370.9999
 20
-2100.00005
 10
-5370.9999
 20
-2093.0
 10
-5371.999950000001
 20
-2088.00005
 10
-5371.999950000001
 20
-2082.99995
 10
-5373.9999
 20
-2079.99995
 10
-5374.99995
 20
-2076.99995
 10
-5377.99995
 20
-2076.00005
 10
-5380.99995
 20
-2076.00005
 10
-5385.0
 20
-2076.00005
 10
-5388.999899999999
 20
-2076.00005
 10
-5394.0
 20
-2076.99995
 10
-5400.0
 20
-2079.00005
 10
-5404.99995
 20
-2079.99995
 10
-5409.0
 20
-2082.00005
 10
-5412.999899999999
 20
-2082.99995
  0
LWPOLYLINE
  5
2FB9C
330
2FB91
100
AcDbEntity
  8
LAYER12
  6
Continuous
 62
     0
100
AcDbPolyline
 90
       35
 70
     1
 43
0.0
 10
-5394.0
 20
-2136.99995
 10
-5392.99995
 20
-2133.99995
 10
-5391.0
 20
-2132.0
 10
-5388.0
 20
-2129.0
 10
-5385.0
 20
-2127.00005
 10
-5379.9999
 20
-2124.00005
 10
-5376.0
 20
-2123.0
 10
-5370.9999
 20
-2123.0
 10
-5365.99995
 20
-2124.00005
 10
-5361.9999
 20
-2126.0
 10
-5356.99995
 20
-2129.0
 10
-5352.9999
 20
-2133.99995
 10
-5349.0
 20
-2139.99995
 10
-5346.0
 20
-2145.99995
 10
-5343.0
 20
-2154.00005
 10
-5340.0
 20
-2162.0
 10
-5337.999899999999
 20
-2171.0
 10
-5337.0
 20
-2178.00005
 10
-5337.0
 20
-2184.00005
 10
-5337.0
 20
-2189.0
 10
-5337.999899999999
 20
-2192.0
 10
-5340.999899999999
 20
-2195.0
 10
-5344.99995
 20
-2196.99995
 10
-5352.0
 20
-2198.0
 10
-5359.99995
 20
-2199.00005
 10
-5368.99995
 20
-2199.00005
 10
-5379.0
 20
-2198.0
 10
-5386.99995
 20
-2195.0
 10
-5391.9999
 20
-2190.00005
 10
-5394.9999
 20
-2181.99995
 10
-5395.99995
 20
-2172.00005
 10
-5395.99995
 20
-2162.0
 10
-5395.99995
 20
-2154.00005
 10
-5395.99995
 20
-2147.0
 10
-5394.9999
 20
-2141.0
  0
LWPOLYLINE
  5
2FB9D
330
2FB91
100
AcDbEntity
  8
LAYER12
  6
Continuous
 62
     0
100
AcDbPolyline
 90
       17
 70
     0
 43
0.0
 10
-5373.0
 20
-2010.99995
 10
-5373.9999
 20
-2015.0
 10
-5374.99995
 20
-2019.99995
 10
-5374.99995
 20
-2025.99995
 10
-5373.9999
 20
-2033.0
 10
-5373.0
 20
-2040.00005
 10
-5371.999950000001
 20
-2048.0
 10
-5370.0
 20
-2055.99995
 10
-5367.0
 20
-2061.99995
 10
-5362.99995
 20
-2067.00005
 10
-5358.0
 20
-2070.99995
 10
-5353.999950000001
 20
-2075.0
 10
-5347.999950000001
 20
-2076.99995
 10
-5343.0
 20
-2078.0
 10
-5337.0
 20
-2078.0
 10
-5331.0
 20
-2076.00005
 10
-5325.9999
 20
-2073.99995
  0
LWPOLYLINE
  5
2FB9E
330
2FB91
100
AcDbEntity
  8
LAYER12
  6
Continuous
 62
     0
100
AcDbPolyline
 90
        6
 70
     0
 43
0.0
 10
-5344.99995
 20
-2004.99995
 10
-5355.0
 20
-2004.99995
 10
-5361.9999
 20
-2004.99995
 10
-5367.9999
 20
-2007.00005
 10
-5370.9999
 20
-2009.0
 10
-5373.0
 20
-2010.99995
  0
LWPOLYLINE
  5
2FB9F
330
2FB91
100
AcDbEntity
  8
LAYER12
  6
Continuous
 62
     0
100
AcDbPolyline
 90
       21
 70
     0
 43
0.0
 10
-5367.9999
 20
-2073.00005
 10
-5370.0
 20
-2075.0
 10
-5370.9999
 20
-2078.0
 10
-5370.9999
 20
-2082.99995
 10
-5371.999950000001
 20
-2088.99995
 10
-5370.9999
 20
-2096.0
 10
-5370.9999
 20
-2103.99995
 10
-5368.99995
 20
-2111.0
 10
-5367.0
 20
-2117.0
 10
-5364.0
 20
-2121.000050000001
 10
-5359.99995
 20
-2124.00005
 10
-5355.9999
 20
-2127.00005
 10
-5352.0
 20
-2129.0
 10
-5346.9999
 20
-2130.99995
 10
-5341.99995
 20
-2132.0
 10
-5335.999950000001
 20
-2133.00005
 10
-5331.0
 20
-2133.99995
 10
-5325.9999
 20
-2133.00005
 10
-5320.99995
 20
-2130.00005
 10
-5316.999899999999
 20
-2126.0
 10
-5311.99995
 20
-2121.000050000001
  0
LWPOLYLINE
  5
2FBA0
330
2FB91
100
AcDbEntity
  8
LAYER12
  6
Continuous
 62
     0
100
AcDbPolyline
 90
       10
 70
     0
 43
0.0
 10
-5326.999950000001
 20
-2081.0
 10
-5332.999950000001
 20
-2079.99995
 10
-5337.999899999999
 20
-2079.00005
 10
-5343.9999
 20
-2076.99995
 10
-5349.0
 20
-2075.0
 10
-5355.0
 20
-2073.99995
 10
-5359.99995
 20
-2073.00005
 10
-5364.0
 20
-2073.00005
 10
-5365.99995
 20
-2073.00005
 10
-5367.9999
 20
-2073.00005
  0
LWPOLYLINE
  5
2FBA1
330
2FB91
100
AcDbEntity
  8
LAYER12
  6
Continuous
 62
     0
100
AcDbPolyline
 90
       21
 70
     0
 43
0.0
 10
-5332.999950000001
 20
-2135.0
 10
-5335.999950000001
 20
-2135.0
 10
-5337.999899999999
 20
-2135.0
 10
-5340.0
 20
-2136.00005
 10
-5340.999899999999
 20
-2136.99995
 10
-5340.999899999999
 20
-2138.0
 10
-5341.99995
 20
-2141.0
 10
-5340.999899999999
 20
-2145.99995
 10
-5340.0
 20
-2153.0
 10
-5337.999899999999
 20
-2160.99995
 10
-5334.999899999999
 20
-2171.0
 10
-5331.999899999999
 20
-2181.99995
 10
-5326.999950000001
 20
-2189.0
 10
-5319.9999
 20
-2195.0
 10
-5310.9999
 20
-2198.0
 10
-5299.99995
 20
-2199.00005
 10
-5289.9999
 20
-2199.00005
 10
-5281.99995
 20
-2198.0
 10
-5274.9999
 20
-2195.0
 10
-5269.99995
 20
-2192.0
 10
-5265.9999
 20
-2187.00005
  0
LWPOLYLINE
  5
2FBA2
330
2FB91
100
AcDbEntity
  8
LAYER12
  6
Continuous
 62
     0
100
AcDbPolyline
 90
        8
 70
     0
 43
0.0
 10
-5310.0
 20
-2135.0
 10
-5314.99995
 20
-2135.0
 10
-5317.99995
 20
-2135.0
 10
-5322.0
 20
-2136.00005
 10
-5325.0
 20
-2136.00005
 10
-5328.0
 20
-2136.00005
 10
-5331.0
 20
-2136.00005
 10
-5332.999950000001
 20
-2135.0
  0
LWPOLYLINE
  5
2FBA3
330
2FB91
100
AcDbEntity
  8
LAYER12
  6
Continuous
 62
     0
100
AcDbPolyline
 90
       35
 70
     1
 43
0.0
 10
-4802.0
 20
-2148.99995
 10
-4802.0
 20
-2162.0
 10
-4802.0
 20
-2174.0
 10
-4803.00005
 20
-2181.99995
 10
-4804.0001
 20
-2187.99995
 10
-4806.00005
 20
-2192.0
 10
-4808.0
 20
-2193.00005
 10
-4811.0
 20
-2195.0
 10
-4815.00005
 20
-2196.00005
 10
-4821.00005
 20
-2196.99995
 10
-4828.0001
 20
-2198.0
 10
-4834.0001
 20
-2198.0
 10
-4841.0
 20
-2196.99995
 10
-4847.0
 20
-2195.0
 10
-4852.0001
 20
-2193.00005
 10
-4858.0001
 20
-2190.99995
 10
-4862.0
 20
-2187.00005
 10
-4865.0
 20
-2181.00005
 10
-4866.00005
 20
-2174.0
 10
-4866.00005
 20
-2166.00005
 10
-4866.00005
 20
-2157.00005
 10
-4863.00005
 20
-2147.0
 10
-4860.00005
 20
-2138.0
 10
-4855.0001
 20
-2130.00005
 10
-4849.000100000001
 20
-2124.00005
 10
-4842.00005
 20
-2118.99995
 10
-4834.0001
 20
-2114.0
 10
-4827.000049999999
 20
-2111.0
 10
-4821.00005
 20
-2109.00005
 10
-4816.0001
 20
-2108.0
 10
-4812.000049999999
 20
-2109.00005
 10
-4808.0
 20
-2111.0
 10
-4805.0
 20
-2115.99995
 10
-4803.00005
 20
-2124.00005
 10
-4802.0
 20
-2135.0
  0
LWPOLYLINE
  5
2FBA4
330
2FB91
100
AcDbEntity
  8
LAYER12
  6
Continuous
 62
     0
100
AcDbPolyline
 90
       35
 70
     1
 43
0.0
 10
-4819.0001
 20
-2103.99995
 10
-4825.0001
 20
-2106.99995
 10
-4832.0
 20
-2109.00005
 10
-4838.0
 20
-2109.99995
 10
-4844.0
 20
-2109.99995
 10
-4850.0
 20
-2109.00005
 10
-4855.0001
 20
-2106.00005
 10
-4859.0
 20
-2103.00005
 10
-4863.00005
 20
-2099.0
 10
-4867.000100000001
 20
-2094.00005
 10
-4870.0001
 20
-2088.00005
 10
-4871.0
 20
-2081.0
 10
-4872.00005
 20
-2073.00005
 10
-4872.00005
 20
-2066.0
 10
-4870.0001
 20
-2058.00005
 10
-4868.0
 20
-2049.99995
 10
-4864.000100000001
 20
-2040.99995
 10
-4861.0001
 20
-2034.00005
 10
-4858.0001
 20
-2027.0
 10
-4854.000049999999
 20
-2019.99995
 10
-4851.000049999999
 20
-2015.0
 10
-4846.000100000001
 20
-2010.00005
 10
-4841.0
 20
-2006.0
 10
-4835.0
 20
-2003.0
 10
-4828.0001
 20
-2001.99995
 10
-4821.00005
 20
-2001.99995
 10
-4813.0001
 20
-2004.00005
 10
-4807.0001
 20
-2010.00005
 10
-4803.00005
 20
-2019.00005
 10
-4801.0001
 20
-2031.99995
 10
-4801.0001
 20
-2049.00005
 10
-4802.0
 20
-2064.99995
 10
-4804.0001
 20
-2079.00005
 10
-4807.0001
 20
-2090.0
 10
-4812.000049999999
 20
-2097.99995
  0
LWPOLYLINE
  5
2FBA5
330
2FB91
100
AcDbEntity
  8
LAYER12
  6
Continuous
 62
     0
100
AcDbPolyline
 90
       35
 70
     1
 43
0.0
 10
-4853.0
 20
-2114.0
 10
-4852.0001
 20
-2115.99995
 10
-4852.0001
 20
-2118.99995
 10
-4853.0
 20
-2123.0
 10
-4855.0001
 20
-2127.99995
 10
-4859.0
 20
-2133.99995
 10
-4862.0
 20
-2139.00005
 10
-4866.00005
 20
-2142.99995
 10
-4870.0001
 20
-2145.99995
 10
-4875.00005
 20
-2148.00005
 10
-4880.0
 20
-2148.99995
 10
-4884.00005
 20
-2148.00005
 10
-4889.0
 20
-2145.99995
 10
-4894.0001
 20
-2142.99995
 10
-4899.00005
 20
-2139.00005
 10
-4905.000049999999
 20
-2133.99995
 10
-4909.0001
 20
-2127.00005
 10
-4912.0001
 20
-2120.0
 10
-4914.00005
 20
-2112.99995
 10
-4914.00005
 20
-2103.99995
 10
-4913.0
 20
-2096.0
 10
-4910.0
 20
-2087.0
 10
-4907.0
 20
-2081.0
 10
-4902.000049999999
 20
-2078.0
 10
-4897.0001
 20
-2076.00005
 10
-4891.0001
 20
-2076.99995
 10
-4884.00005
 20
-2079.00005
 10
-4878.00005
 20
-2081.0
 10
-4873.0001
 20
-2085.00005
 10
-4868.0
 20
-2088.99995
 10
-4865.0
 20
-2094.99995
 10
-4861.0001
 20
-2100.00005
 10
-4858.0001
 20
-2103.99995
 10
-4856.0
 20
-2108.0
 10
-4854.000049999999
 20
-2111.0
  0
LWPOLYLINE
  5
2FBA6
330
2FB91
100
AcDbEntity
  8
LAYER12
  6
Continuous
 62
     0
100
AcDbPolyline
 90
       35
 70
     1
 43
0.0
 10
-4873.0001
 20
-2151.99995
 10
-4871.0
 20
-2153.0
 10
-4870.0001
 20
-2157.00005
 10
-4869.00005
 20
-2162.0
 10
-4868.0
 20
-2168.0
 10
-4868.0
 20
-2175.99995
 10
-4869.00005
 20
-2183.0
 10
-4874.0
 20
-2189.0
 10
-4882.0001
 20
-2193.99995
 10
-4895.0
 20
-2196.00005
 10
-4912.0001
 20
-2198.0
 10
-4928.0
 20
-2196.99995
 10
-4941.000049999999
 20
-2195.0
 10
-4950.000049999999
 20
-2190.99995
 10
-4956.00005
 20
-2186.0
 10
-4958.0
 20
-2178.99995
 10
-4957.000100000001
 20
-2171.0
 10
-4955.0
 20
-2163.99995
 10
-4952.0
 20
-2157.99995
 10
-4948.0001
 20
-2154.00005
 10
-4943.0
 20
-2150.0
 10
-4937.0
 20
-2145.99995
 10
-4931.0
 20
-2144.0
 10
-4925.0
 20
-2142.00005
 10
-4919.0
 20
-2141.0
 10
-4914.00005
 20
-2142.00005
 10
-4908.00005
 20
-2142.00005
 10
-4903.0001
 20
-2142.99995
 10
-4897.0001
 20
-2142.99995
 10
-4892.0
 20
-2144.0
 10
-4888.0001
 20
-2145.99995
 10
-4883.0
 20
-2147.0
 10
-4879.0001
 20
-2148.00005
 10
-4876.0001
 20
-2148.99995
 10
-4874.0
 20
-2150.0
  0
LWPOLYLINE
  5
2FBA7
330
2FB91
100
AcDbEntity
  8
LAYER12
  6
Continuous
 62
     0
100
AcDbPolyline
 90
       40
 70
     1
 43
0.0
 10
-4859.0
 20
-2007.99995
 10
-4857.000049999999
 20
-2012.0
 10
-4857.000049999999
 20
-2016.99995
 10
-4858.0001
 20
-2022.99995
 10
-4859.0
 20
-2030.0
 10
-4863.00005
 20
-2037.99995
 10
-4866.00005
 20
-2045.0
 10
-4870.0001
 20
-2052.00005
 10
-4874.0
 20
-2058.00005
 10
-4878.00005
 20
-2061.99995
 10
-4883.0
 20
-2066.0
 10
-4887.00005
 20
-2067.99995
 10
-4891.0001
 20
-2070.99995
 10
-4896.00005
 20
-2073.99995
 10
-4901.0
 20
-2076.00005
 10
-4906.000099999999
 20
-2079.00005
 10
-4910.0
 20
-2079.99995
 10
-4915.0001
 20
-2081.0
 10
-4919.0
 20
-2081.0
 10
-4923.000049999999
 20
-2079.99995
 10
-4927.0001
 20
-2079.00005
 10
-4930.0001
 20
-2076.00005
 10
-4933.0001
 20
-2072.0
 10
-4936.000100000001
 20
-2067.00005
 10
-4938.000049999999
 20
-2061.00005
 10
-4940.0
 20
-2054.0
 10
-4941.000049999999
 20
-2046.00005
 10
-4941.000049999999
 20
-2039.0
 10
-4941.000049999999
 20
-2031.00005
 10
-4940.0
 20
-2024.0
 10
-4938.000049999999
 20
-2018.0
 10
-4934.0
 20
-2010.99995
 10
-4928.0
 20
-2006.0
 10
-4920.000049999999
 20
-2003.0
 10
-4910.0
 20
-2001.00005
 10
-4898.0
 20
-2000.0
 10
-4885.0001
 20
-2000.0
 10
-4875.00005
 20
-2000.0
 10
-4867.000100000001
 20
-2001.99995
 10
-4862.0
 20
-2004.00005
  0
LWPOLYLINE
  5
2FBA8
330
2FB91
100
AcDbEntity
  8
LAYER12
  6
Continuous
 62
     0
100
AcDbPolyline
 90
       35
 70
     1
 43
0.0
 10
-4926.000049999999
 20
-2082.00005
 10
-4923.000049999999
 20
-2082.99995
 10
-4920.000049999999
 20
-2087.0
 10
-4918.0001
 20
-2091.99995
 10
-4916.0
 20
-2100.00005
 10
-4915.0001
 20
-2111.0
 10
-4914.00005
 20
-2121.000050000001
 10
-4916.0
 20
-2129.0
 10
-4919.0
 20
-2136.00005
 10
-4924.0001
 20
-2141.0
 10
-4931.0
 20
-2144.0
 10
-4938.000049999999
 20
-2145.00005
 10
-4944.000049999999
 20
-2145.99995
 10
-4950.000049999999
 20
-2145.99995
 10
-4956.00005
 20
-2144.0
 10
-4961.0
 20
-2142.99995
 10
-4964.0
 20
-2139.00005
 10
-4968.00005
 20
-2135.0
 10
-4970.0
 20
-2129.0
 10
-4971.00005
 20
-2121.99995
 10
-4972.0001
 20
-2114.0
 10
-4971.00005
 20
-2105.0
 10
-4970.0
 20
-2097.99995
 10
-4968.00005
 20
-2091.00005
 10
-4966.0001
 20
-2085.99995
 10
-4963.0001
 20
-2082.99995
 10
-4959.00005
 20
-2079.99995
 10
-4955.0
 20
-2078.0
 10
-4951.0001
 20
-2076.99995
 10
-4947.000049999999
 20
-2076.99995
 10
-4944.000049999999
 20
-2078.0
 10
-4940.0
 20
-2079.00005
 10
-4936.000100000001
 20
-2079.99995
 10
-4932.00005
 20
-2079.99995
 10
-4929.000049999999
 20
-2081.0
  0
LWPOLYLINE
  5
2FBA9
330
2FB91
100
AcDbEntity
  8
LAYER12
  6
Continuous
 62
     0
100
AcDbPolyline
 90
       35
 70
     1
 43
0.0
 10
-4947.000049999999
 20
-2004.99995
 10
-4945.0001
 20
-2007.00005
 10
-4943.0
 20
-2010.99995
 10
-4942.000100000001
 20
-2016.99995
 10
-4942.000100000001
 20
-2025.00005
 10
-4942.000100000001
 20
-2034.99995
 10
-4942.000100000001
 20
-2043.99995
 10
-4943.0
 20
-2052.99995
 10
-4944.000049999999
 20
-2060.0
 10
-4947.000049999999
 20
-2064.99995
 10
-4950.000049999999
 20
-2070.00005
 10
-4953.000049999999
 20
-2073.00005
 10
-4957.000100000001
 20
-2075.0
 10
-4962.00005
 20
-2076.99995
 10
-4967.0
 20
-2079.00005
 10
-4973.0
 20
-2079.99995
 10
-4978.0001
 20
-2079.00005
 10
-4984.0001
 20
-2078.0
 10
-4988.0
 20
-2075.0
 10
-4993.0001
 20
-2070.99995
 10
-4997.0
 20
-2066.0
 10
-5000.0
 20
-2058.99995
 10
-5002.0001
 20
-2052.00005
 10
-5003.0
 20
-2043.99995
 10
-5003.0
 20
-2034.99995
 10
-5003.0
 20
-2025.99995
 10
-5000.0
 20
-2016.99995
 10
-4997.0
 20
-2010.00005
 10
-4991.0
 20
-2004.99995
 10
-4984.0001
 20
-2001.99995
 10
-4976.0
 20
-2001.00005
 10
-4967.0
 20
-2001.00005
 10
-4959.00005
 20
-2001.00005
 10
-4954.0001
 20
-2001.99995
 10
-4949.0
 20
-2003.0
  0
LWPOLYLINE
  5
2FBAA
330
2FB91
100
AcDbEntity
  8
LAYER12
  6
Continuous
 62
     0
100
AcDbPolyline
 90
       35
 70
     1
 43
0.0
 10
-4972.0001
 20
-2196.99995
 10
-4966.0001
 20
-2195.0
 10
-4963.0001
 20
-2192.0
 10
-4960.000100000001
 20
-2187.00005
 10
-4958.0
 20
-2180.0
 10
-4958.0
 20
-2172.00005
 10
-4958.0
 20
-2163.00005
 10
-4959.00005
 20
-2154.99995
 10
-4961.0
 20
-2147.0
 10
-4965.00005
 20
-2139.99995
 10
-4969.0001
 20
-2135.0
 10
-4973.0
 20
-2130.00005
 10
-4978.0001
 20
-2126.0
 10
-4984.0001
 20
-2123.0
 10
-4990.0001
 20
-2121.99995
 10
-4997.0
 20
-2123.0
 10
-5003.0
 20
-2124.00005
 10
-5009.0
 20
-2127.00005
 10
-5013.000049999999
 20
-2130.99995
 10
-5017.0001
 20
-2136.00005
 10
-5021.0
 20
-2142.99995
 10
-5023.0001
 20
-2150.0
 10
-5024.0
 20
-2157.00005
 10
-5024.0
 20
-2163.99995
 10
-5023.0001
 20
-2172.00005
 10
-5022.000049999999
 20
-2180.0
 10
-5019.000049999999
 20
-2186.0
 10
-5015.0
 20
-2192.0
 10
-5011.0001
 20
-2195.0
 10
-5006.0
 20
-2198.0
 10
-5001.00005
 20
-2199.00005
 10
-4995.000049999999
 20
-2198.0
 10
-4989.00005
 20
-2198.0
 10
-4983.00005
 20
-2198.0
 10
-4977.00005
 20
-2196.99995
  0
LWPOLYLINE
  5
2FBAB
330
2FB91
100
AcDbEntity
  8
LAYER12
  6
Continuous
 62
     0
100
AcDbPolyline
 90
       35
 70
     1
 43
0.0
 10
-4984.0001
 20
-2117.0
 10
-4981.0001
 20
-2115.00005
 10
-4978.0001
 20
-2112.99995
 10
-4976.0
 20
-2109.00005
 10
-4975.0001
 20
-2103.99995
 10
-4974.00005
 20
-2099.0
 10
-4973.0
 20
-2093.0
 10
-4974.00005
 20
-2087.0
 10
-4977.00005
 20
-2082.99995
 10
-4981.0001
 20
-2079.00005
 10
-4986.00005
 20
-2076.99995
 10
-4991.0
 20
-2075.0
 10
-4997.0
 20
-2073.00005
 10
-5002.0001
 20
-2073.00005
 10
-5008.0001
 20
-2073.99995
 10
-5014.0001
 20
-2076.00005
 10
-5019.000049999999
 20
-2078.0
 10
-5023.0001
 20
-2082.00005
 10
-5026.0001
 20
-2087.0
 10
-5028.00005
 20
-2091.99995
 10
-5029.000100000001
 20
-2100.00005
 10
-5029.000100000001
 20
-2106.99995
 10
-5028.00005
 20
-2112.00005
 10
-5028.00005
 20
-2117.0
 10
-5026.0001
 20
-2120.0
 10
-5025.00005
 20
-2123.0
 10
-5022.000049999999
 20
-2124.00005
 10
-5019.000049999999
 20
-2124.00005
 10
-5015.0
 20
-2124.00005
 10
-5011.0001
 20
-2124.00005
 10
-5006.0
 20
-2123.0
 10
-5000.0
 20
-2121.000050000001
 10
-4995.000049999999
 20
-2120.0
 10
-4991.0
 20
-2118.00005
 10
-4987.0001
 20
-2117.0
  0
LWPOLYLINE
  5
2FBAC
330
2FB91
100
AcDbEntity
  8
LAYER12
  6
Continuous
 62
     0
100
AcDbPolyline
 90
       35
 70
     1
 43
0.0
 10
-5006.0
 20
-2063.0
 10
-5007.00005
 20
-2066.0
 10
-5009.0
 20
-2067.99995
 10
-5012.0
 20
-2070.99995
 10
-5015.0
 20
-2073.00005
 10
-5020.0001
 20
-2076.00005
 10
-5024.0
 20
-2076.99995
 10
-5029.000100000001
 20
-2076.99995
 10
-5034.000049999999
 20
-2076.00005
 10
-5038.0001
 20
-2073.99995
 10
-5043.000049999999
 20
-2070.99995
 10
-5047.0001
 20
-2066.0
 10
-5051.0
 20
-2060.0
 10
-5054.0
 20
-2054.0
 10
-5057.0
 20
-2046.00005
 10
-5060.0
 20
-2037.99995
 10
-5062.0001
 20
-2028.99995
 10
-5063.0
 20
-2022.00005
 10
-5063.0
 20
-2016.00005
 10
-5063.0
 20
-2010.99995
 10
-5062.0001
 20
-2007.99995
 10
-5059.0001
 20
-2004.99995
 10
-5055.00005
 20
-2003.0
 10
-5048.0
 20
-2001.99995
 10
-5040.000049999999
 20
-2001.00005
 10
-5031.00005
 20
-2001.00005
 10
-5021.0
 20
-2001.99995
 10
-5013.000049999999
 20
-2004.99995
 10
-5008.0001
 20
-2010.00005
 10
-5005.0001
 20
-2018.0
 10
-5004.00005
 20
-2028.00005
 10
-5004.00005
 20
-2037.99995
 10
-5004.00005
 20
-2046.00005
 10
-5004.00005
 20
-2052.99995
 10
-5005.0001
 20
-2058.99995
  0
LWPOLYLINE
  5
2FBAD
330
2FB91
100
AcDbEntity
  8
LAYER12
  6
Continuous
 62
     0
100
AcDbPolyline
 90
       17
 70
     0
 43
0.0
 10
-5027.0
 20
-2189.0
 10
-5026.0001
 20
-2184.99995
 10
-5025.00005
 20
-2180.0
 10
-5025.00005
 20
-2174.0
 10
-5026.0001
 20
-2166.99995
 10
-5027.0
 20
-2160.00005
 10
-5028.00005
 20
-2151.99995
 10
-5030.0
 20
-2144.0
 10
-5033.0
 20
-2138.0
 10
-5037.000049999999
 20
-2133.00005
 10
-5042.0
 20
-2129.0
 10
-5046.000049999999
 20
-2124.99995
 10
-5052.00005
 20
-2123.0
 10
-5057.0
 20
-2121.99995
 10
-5063.0
 20
-2121.99995
 10
-5069.0
 20
-2124.00005
 10
-5074.000100000001
 20
-2126.0
  0
LWPOLYLINE
  5
2FBAE
330
2FB91
100
AcDbEntity
  8
LAYER12
  6
Continuous
 62
     0
100
AcDbPolyline
 90
        6
 70
     0
 43
0.0
 10
-5055.00005
 20
-2195.0
 10
-5045.0
 20
-2195.0
 10
-5038.0001
 20
-2195.0
 10
-5032.000100000001
 20
-2193.00005
 10
-5029.000100000001
 20
-2190.99995
 10
-5027.0
 20
-2189.0
  0
LWPOLYLINE
  5
2FBAF
330
2FB91
100
AcDbEntity
  8
LAYER12
  6
Continuous
 62
     0
100
AcDbPolyline
 90
       21
 70
     0
 43
0.0
 10
-5032.000100000001
 20
-2127.00005
 10
-5030.0
 20
-2124.99995
 10
-5029.000100000001
 20
-2121.99995
 10
-5029.000100000001
 20
-2117.0
 10
-5028.00005
 20
-2111.0
 10
-5029.000100000001
 20
-2103.99995
 10
-5029.000100000001
 20
-2096.0
 10
-5031.00005
 20
-2088.99995
 10
-5033.0
 20
-2082.99995
 10
-5036.0
 20
-2079.00005
 10
-5040.000049999999
 20
-2076.00005
 10
-5044.0001
 20
-2073.00005
 10
-5048.0
 20
-2070.99995
 10
-5053.000100000001
 20
-2069.0
 10
-5058.00005
 20
-2067.99995
 10
-5064.00005
 20
-2067.00005
 10
-5069.0
 20
-2066.0
 10
-5074.000100000001
 20
-2067.00005
 10
-5079.00005
 20
-2070.00005
 10
-5083.0001
 20
-2073.99995
 10
-5088.000049999999
 20
-2079.00005
  0
LWPOLYLINE
  5
2FBB0
330
2FB91
100
AcDbEntity
  8
LAYER12
  6
Continuous
 62
     0
100
AcDbPolyline
 90
       10
 70
     0
 43
0.0
 10
-5073.00005
 20
-2118.99995
 10
-5067.00005
 20
-2120.0
 10
-5062.0001
 20
-2121.000050000001
 10
-5056.0001
 20
-2123.0
 10
-5051.0
 20
-2124.99995
 10
-5045.0
 20
-2126.0
 10
-5040.000049999999
 20
-2127.00005
 10
-5036.0
 20
-2127.00005
 10
-5034.000049999999
 20
-2127.00005
 10
-5032.000100000001
 20
-2127.00005
  0
LWPOLYLINE
  5
2FBB1
330
2FB91
100
AcDbEntity
  8
LAYER12
  6
Continuous
 62
     0
100
AcDbPolyline
 90
       21
 70
     0
 43
0.0
 10
-5067.00005
 20
-2064.99995
 10
-5064.00005
 20
-2064.99995
 10
-5062.0001
 20
-2064.99995
 10
-5060.0
 20
-2064.00005
 10
-5059.0001
 20
-2063.0
 10
-5059.0001
 20
-2061.99995
 10
-5058.00005
 20
-2058.99995
 10
-5059.0001
 20
-2054.0
 10
-5060.0
 20
-2046.99995
 10
-5062.0001
 20
-2039.0
 10
-5065.0001
 20
-2028.99995
 10
-5068.0001
 20
-2018.0
 10
-5073.00005
 20
-2010.99995
 10
-5080.0001
 20
-2004.99995
 10
-5089.0001
 20
-2001.99995
 10
-5100.00005
 20
-2001.00005
 10
-5110.0001
 20
-2001.00005
 10
-5118.00005
 20
-2001.99995
 10
-5125.000100000001
 20
-2004.99995
 10
-5130.000049999999
 20
-2007.99995
 10
-5134.0001
 20
-2013.00005
  0
LWPOLYLINE
  5
2FBB2
330
2FB91
100
AcDbEntity
  8
LAYER12
  6
Continuous
 62
     0
100
AcDbPolyline
 90
        8
 70
     0
 43
0.0
 10
-5090.0
 20
-2064.99995
 10
-5085.00005
 20
-2064.99995
 10
-5082.00005
 20
-2064.99995
 10
-5078.0
 20
-2064.00005
 10
-5075.0
 20
-2064.00005
 10
-5072.0
 20
-2064.00005
 10
-5069.0
 20
-2064.00005
 10
-5067.00005
 20
-2064.99995
  0
ENDBLK
  5
2FBB3
330
2FB91
100
AcDbEntity
  8
0
100
AcDbBlockEnd
  0
BLOCK
  5
30E59
330
30E4F
100
AcDbEntity
  8
0
100
AcDbBlockBegin
  2
*D6
 70
     1
 10
0.0
 20
0.0
 30
0.0
  3
*D6
  1

  0
LINE
  5
31003
330
30E4F
100
AcDbEntity
  8
D-STR-DIM　寸法線、寸法値
 62
     0
370
    -2
100
AcDbLine
 10
198399.5577231221
 20
12544.09353227235
 30
0.0
 11
198399.5577231221
 21
12624.338191424
 31
0.0
  0
LINE
  5
31004
330
30E4F
100
AcDbEntity
  8
D-STR-DIM　寸法線、寸法値
 62
     0
370
    -2
100
AcDbLine
 10
198599.5577231221
 20
12528.09353227235
 30
0.0
 11
198599.5577231221
 21
12624.338191424
 31
0.0
  0
LINE
  5
31005
330
30E4F
100
AcDbEntity
  8
D-STR-DIM　寸法線、寸法値
 62
     0
370
    -2
100
AcDbLine
 10
198399.5577231221
 20
12606.338191424
 30
0.0
 11
198599.5577231221
 21
12606.338191424
 31
0.0
  0
INSERT
  5
31006
330
30E4F
100
AcDbEntity
  8
D-STR-DIM　寸法線、寸法値
 62
     0
370
    -2
100
AcDbBlockReference
  2
_DotSmall
 10
198399.5577231221
 20
12606.338191424
 30
0.0
 41
45.0
 42
45.0
 43
45.0
 50
180.0
  0
INSERT
  5
31007
330
30E4F
100
AcDbEntity
  8
D-STR-DIM　寸法線、寸法値
 62
     0
370
    -2
100
AcDbBlockReference
  2
_DotSmall
 10
198599.5577231221
 20
12606.338191424
 30
0.0
 41
45.0
 42
45.0
 43
45.0
  0
MTEXT
  5
31008
330
30E4F
100
AcDbEntity
  8
D-STR-DIM　寸法線、寸法値
 62
     0
100
AcDbMText
 10
198499.5577231221
 20
12638.404591424
 30
0.0
 40
37.5
 41
0.0
 71
     5
 72
     1
  1
\A1;200
  7
YOKO_GOTHIC
 73
     1
 44
1.0
1001
ACAD
1000
MTEXTBEGIN
1070
    73
1070
     1
1070
    44
1040
1.0
1070
    74
1070
     0
1000
MTEXTEND
  0
POINT
  5
31009
330
30E4F
100
AcDbEntity
  8
Defpoints
 62
     0
100
AcDbPoint
 10
198399.5577231221
 20
12520.09353227235
 30
0.0
  0
POINT
  5
3100A
330
30E4F
100
AcDbEntity
  8
Defpoints
 62
     0
100
AcDbPoint
 10
198599.5577231221
 20
12504.09353227235
 30
0.0
  0
POINT
  5
3100B
330
30E4F
100
AcDbEntity
  8
Defpoints
 62
     0
100
AcDbPoint
 10
198599.5577231221
 20
12606.338191424
 30
0.0
  0
ENDBLK
  5
30E5A
330
30E4F
100
AcDbEntity
  8
0
100
AcDbBlockEnd
  0
BLOCK
  5
30E65
330
30E5B
100
AcDbEntity
  8
0
100
AcDbBlockBegin
  2
*D7
 70
     1
 10
0.0
 20
0.0
 30
0.0
  3
*D7
  1

  0
LINE
  5
3100C
330
30E5B
100
AcDbEntity
  8
D-STR-DIM　寸法線、寸法値
 62
     0
370
    -2
100
AcDbLine
 10
198599.5577231221
 20
12528.09353227235
 30
0.0
 11
198599.5577231221
 21
12624.338191424
 31
0.0
  0
LINE
  5
3100D
330
30E5B
100
AcDbEntity
  8
D-STR-DIM　寸法線、寸法値
 62
     0
370
    -2
100
AcDbLine
 10
199299.5577231221
 20
12528.09353227235
 30
0.0
 11
199299.5577231221
 21
12624.338191424
 31
0.0
  0
LINE
  5
3100E
330
30E5B
100
AcDbEntity
  8
D-STR-DIM　寸法線、寸法値
 62
     0
370
    -2
100
AcDbLine
 10
198599.5577231221
 20
12606.338191424
 30
0.0
 11
199299.5577231221
 21
12606.338191424
 31
0.0
  0
INSERT
  5
3100F
330
30E5B
100
AcDbEntity
  8
D-STR-DIM　寸法線、寸法値
 62
     0
370
    -2
100
AcDbBlockReference
  2
_DotSmall
 10
198599.5577231221
 20
12606.338191424
 30
0.0
 41
45.0
 42
45.0
 43
45.0
 50
180.0
  0
INSERT
  5
31010
330
30E5B
100
AcDbEntity
  8
D-STR-DIM　寸法線、寸法値
 62
     0
370
    -2
100
AcDbBlockReference
  2
_DotSmall
 10
199299.5577231221
 20
12606.338191424
 30
0.0
 41
45.0
 42
45.0
 43
45.0
  0
MTEXT
  5
31011
330
30E5B
100
AcDbEntity
  8
D-STR-DIM　寸法線、寸法値
 62
     0
100
AcDbMText
 10
198949.5577231221
 20
12638.404591424
 30
0.0
 40
37.5
 41
0.0
 71
     5
 72
     1
  1
\A1;700
  7
YOKO_GOTHIC
 73
     1
 44
1.0
1001
ACAD
1000
MTEXTBEGIN
1070
    73
1070
     1
1070
    44
1040
1.0
1070
    74
1070
     0
1000
MTEXTEND
  0
POINT
  5
31012
330
30E5B
100
AcDbEntity
  8
Defpoints
 62
     0
100
AcDbPoint
 10
198599.5577231221
 20
12504.09353227235
 30
0.0
  0
POINT
  5
31013
330
30E5B
100
AcDbEntity
  8
Defpoints
 62
     0
100
AcDbPoint
 10
199299.5577231221
 20
12504.09353227235
 30
0.0
  0
POINT
  5
31014
330
30E5B
100
AcDbEntity
  8
Defpoints
 62
     0
100
AcDbPoint
 10
199299.5577231221
 20
12606.338191424
 30
0.0
  0
ENDBLK
  5
30E66
330
30E5B
100
AcDbEntity
  8
0
100
AcDbBlockEnd
  0
BLOCK
  5
30E71
330
30E67
100
AcDbEntity
  8
0
100
AcDbBlockBegin
  2
*D8
 70
     1
 10
0.0
 20
0.0
 30
0.0
  3
*D8
  1

  0
LINE
  5
31015
330
30E67
100
AcDbEntity
  8
D-STR-DIM　寸法線、寸法値
 62
     0
370
    -2
100
AcDbLine
 10
199299.5577231221
 20
12528.09353227235
 30
0.0
 11
199299.5577231221
 21
12624.338191424
 31
0.0
  0
LINE
  5
31016
330
30E67
100
AcDbEntity
  8
D-STR-DIM　寸法線、寸法値
 62
     0
370
    -2
100
AcDbLine
 10
199999.5577231221
 20
12528.09353227235
 30
0.0
 11
199999.5577231221
 21
12624.338191424
 31
0.0
  0
LINE
  5
31017
330
30E67
100
AcDbEntity
  8
D-STR-DIM　寸法線、寸法値
 62
     0
370
    -2
100
AcDbLine
 10
199299.5577231221
 20
12606.338191424
 30
0.0
 11
199999.5577231221
 21
12606.338191424
 31
0.0
  0
INSERT
  5
31018
330
30E67
100
AcDbEntity
  8
D-STR-DIM　寸法線、寸法値
 62
     0
370
    -2
100
AcDbBlockReference
  2
_DotSmall
 10
199299.5577231221
 20
12606.338191424
 30
0.0
 41
45.0
 42
45.0
 43
45.0
 50
180.0
  0
INSERT
  5
31019
330
30E67
100
AcDbEntity
  8
D-STR-DIM　寸法線、寸法値
 62
     0
370
    -2
100
AcDbBlockReference
  2
_DotSmall
 10
199999.5577231221
 20
12606.338191424
 30
0.0
 41
45.0
 42
45.0
 43
45.0
  0
MTEXT
  5
3101A
330
30E67
100
AcDbEntity
  8
D-STR-DIM　寸法線、寸法値
 62
     0
100
AcDbMText
 10
199649.5577231221
 20
12638.404591424
 30
0.0
 40
37.5
 41
0.0
 71
     5
 72
     1
  1
\A1;700
  7
YOKO_GOTHIC
 73
     1
 44
1.0
1001
ACAD
1000
MTEXTBEGIN
1070
    73
1070
     1
1070
    44
1040
1.0
1070
    74
1070
     0
1000
MTEXTEND
  0
POINT
  5
3101B
330
30E67
100
AcDbEntity
  8
Defpoints
 62
     0
100
AcDbPoint
 10
199299.5577231221
 20
12504.09353227235
 30
0.0
  0
POINT
  5
3101C
330
30E67
100
AcDbEntity
  8
Defpoints
 62
     0
100
AcDbPoint
 10
199999.5577231221
 20
12504.09353227235
 30
0.0
  0
POINT
  5
3101D
330
30E67
100
AcDbEntity
  8
Defpoints
 62
     0
100
AcDbPoint
 10
199999.5577231221
 20
12606.338191424
 30
0.0
  0
ENDBLK
  5
30E72
330
30E67
100
AcDbEntity
  8
0
100
AcDbBlockEnd
  0
BLOCK
  5
30E7D
330
30E73
100
AcDbEntity
  8
0
100
AcDbBlockBegin
  2
*D9
 70
     1
 10
0.0
 20
0.0
 30
0.0
  3
*D9
  1

  0
LINE
  5
3101E
330
30E73
100
AcDbEntity
  8
D-STR-DIM　寸法線、寸法値
 62
     0
370
    -2
100
AcDbLine
 10
199999.5577231221
 20
12528.09353227235
 30
0.0
 11
199999.5577231221
 21
12624.338191424
 31
0.0
  0
LINE
  5
3101F
330
30E73
100
AcDbEntity
  8
D-STR-DIM　寸法線、寸法値
 62
     0
370
    -2
100
AcDbLine
 10
200199.5577231221
 20
12544.09353227235
 30
0.0
 11
200199.5577231221
 21
12624.338191424
 31
0.0
  0
LINE
  5
31020
330
30E73
100
AcDbEntity
  8
D-STR-DIM　寸法線、寸法値
 62
     0
370
    -2
100
AcDbLine
 10
199999.5577231221
 20
12606.338191424
 30
0.0
 11
200199.5577231221
 21
12606.338191424
 31
0.0
  0
INSERT
  5
31021
330
30E73
100
AcDbEntity
  8
D-STR-DIM　寸法線、寸法値
 62
     0
370
    -2
100
AcDbBlockReference
  2
_DotSmall
 10
199999.5577231221
 20
12606.338191424
 30
0.0
 41
45.0
 42
45.0
 43
45.0
 50
180.0
  0
INSERT
  5
31022
330
30E73
100
AcDbEntity
  8
D-STR-DIM　寸法線、寸法値
 62
     0
370
    -2
100
AcDbBlockReference
  2
_DotSmall
 10
200199.5577231221
 20
12606.338191424
 30
0.0
 41
45.0
 42
45.0
 43
45.0
  0
MTEXT
  5
31023
330
30E73
100
AcDbEntity
  8
D-STR-DIM　寸法線、寸法値
 62
     0
100
AcDbMText
 10
200099.5577231222
 20
12638.404591424
 30
0.0
 40
37.5
 41
0.0
 71
     5
 72
     1
  1
\A1;200
  7
YOKO_GOTHIC
 73
     1
 44
1.0
1001
ACAD
1000
MTEXTBEGIN
1070
    73
1070
     1
1070
    44
1040
1.0
1070
    74
1070
     0
1000
MTEXTEND
  0
POINT
  5
31024
330
30E73
100
AcDbEntity
  8
Defpoints
 62
     0
100
AcDbPoint
 10
199999.5577231221
 20
12504.09353227235
 30
0.0
  0
POINT
  5
31025
330
30E73
100
AcDbEntity
  8
Defpoints
 62
     0
100
AcDbPoint
 10
200199.5577231221
 20
12520.09353227235
 30
0.0
  0
POINT
  5
31026
330
30E73
100
AcDbEntity
  8
Defpoints
 62
     0
100
AcDbPoint
 10
200199.5577231221
 20
12606.338191424
 30
0.0
  0
ENDBLK
  5
30E7E
330
30E73
100
AcDbEntity
  8
0
100
AcDbBlockEnd
  0
BLOCK
  5
30E89
330
30E7F
100
AcDbEntity
  8
0
100
AcDbBlockBegin
  2
*D10
 70
     1
 10
0.0
 20
0.0
 30
0.0
  3
*D10
  1

  0
LINE
  5
31027
330
30E7F
100
AcDbEntity
  8
D-STR-DIM　寸法線、寸法値
 62
     0
370
    -2
100
AcDbLine
 10
198399.5577231221
 20
12544.09353227235
 30
0.0
 11
198399.5577231221
 21
12692.5560108129
 31
0.0
  0
LINE
  5
31028
330
30E7F
100
AcDbEntity
  8
D-STR-DIM　寸法線、寸法値
 62
     0
370
    -2
100
AcDbLine
 10
200199.5577231221
 20
12544.09353227235
 30
0.0
 11
200199.5577231221
 21
12692.5560108129
 31
0.0
  0
LINE
  5
31029
330
30E7F
100
AcDbEntity
  8
D-STR-DIM　寸法線、寸法値
 62
     0
370
    -2
100
AcDbLine
 10
198399.5577231221
 20
12674.5560108129
 30
0.0
 11
200199.5577231221
 21
12674.5560108129
 31
0.0
  0
INSERT
  5
3102A
330
30E7F
100
AcDbEntity
  8
D-STR-DIM　寸法線、寸法値
 62
     0
370
    -2
100
AcDbBlockReference
  2
_DotSmall
 10
198399.5577231221
 20
12674.5560108129
 30
0.0
 41
45.0
 42
45.0
 43
45.0
 50
180.0
  0
INSERT
  5
3102B
330
30E7F
100
AcDbEntity
  8
D-STR-DIM　寸法線、寸法値
 62
     0
370
    -2
100
AcDbBlockReference
  2
_DotSmall
 10
200199.5577231221
 20
12674.5560108129
 30
0.0
 41
45.0
 42
45.0
 43
45.0
  0
MTEXT
  5
3102C
330
30E7F
100
AcDbEntity
  8
D-STR-DIM　寸法線、寸法値
 62
     0
100
AcDbMText
 10
199299.5577231221
 20
12706.6224108129
 30
0.0
 40
37.5
 41
0.0
 71
     5
 72
     1
  1
\A1;1800
  7
YOKO_GOTHIC
 73
     1
 44
1.0
1001
ACAD
1000
MTEXTBEGIN
1070
    73
1070
     1
1070
    44
1040
1.0
1070
    74
1070
     0
1000
MTEXTEND
  0
POINT
  5
3102D
330
30E7F
100
AcDbEntity
  8
Defpoints
 62
     0
100
AcDbPoint
 10
198399.5577231221
 20
12520.09353227235
 30
0.0
  0
POINT
  5
3102E
330
30E7F
100
AcDbEntity
  8
Defpoints
 62
     0
100
AcDbPoint
 10
200199.5577231221
 20
12520.09353227235
 30
0.0
  0
POINT
  5
3102F
330
30E7F
100
AcDbEntity
  8
Defpoints
 62
     0
100
AcDbPoint
 10
200199.5577231221
 20
12674.5560108129
 30
0.0
  0
ENDBLK
  5
30E8A
330
30E7F
100
AcDbEntity
  8
0
100
AcDbBlockEnd
  0
BLOCK
  5
30E95
330
30E8B
100
AcDbEntity
  8
0
100
AcDbBlockBegin
  2
*D11
 70
     1
 10
0.0
 20
0.0
 30
0.0
  3
*D11
  1

  0
LINE
  5
31030
330
30E8B
100
AcDbEntity
  8
D-STR-DIM　寸法線、寸法値
 62
     0
370
    -2
100
AcDbLine
 10
198399.5577231221
 20
12101.09353227235
 30
0.0
 11
198399.5577231221
 21
12010.18379060711
 31
0.0
  0
LINE
  5
31031
330
30E8B
100
AcDbEntity
  8
D-STR-DIM　寸法線、寸法値
 62
     0
370
    -2
100
AcDbLine
 10
198949.5577231221
 20
12098.59353227235
 30
0.0
 11
198949.5577231221
 21
12010.18379060711
 31
0.0
  0
LINE
  5
31032
330
30E8B
100
AcDbEntity
  8
D-STR-DIM　寸法線、寸法値
 62
     0
370
    -2
100
AcDbLine
 10
198399.5577231221
 20
12028.18379060711
 30
0.0
 11
198949.5577231221
 21
12028.18379060711
 31
0.0
  0
INSERT
  5
31033
330
30E8B
100
AcDbEntity
  8
D-STR-DIM　寸法線、寸法値
 62
     0
370
    -2
100
AcDbBlockReference
  2
_DotSmall
 10
198399.5577231221
 20
12028.18379060711
 30
0.0
 41
45.0
 42
45.0
 43
45.0
 50
180.0
  0
INSERT
  5
31034
330
30E8B
100
AcDbEntity
  8
D-STR-DIM　寸法線、寸法値
 62
     0
370
    -2
100
AcDbBlockReference
  2
_DotSmall
 10
198949.5577231221
 20
12028.18379060711
 30
0.0
 41
45.0
 42
45.0
 43
45.0
  0
MTEXT
  5
31035
330
30E8B
100
AcDbEntity
  8
D-STR-DIM　寸法線、寸法値
 62
     0
100
AcDbMText
 10
198674.5577231221
 20
12060.25019060711
 30
0.0
 40
37.5
 41
0.0
 71
     5
 72
     1
  1
\A1;550
  7
YOKO_GOTHIC
 73
     1
 44
1.0
1001
ACAD
1000
MTEXTBEGIN
1070
    73
1070
     1
1070
    44
1040
1.0
1070
    74
1070
     0
1000
MTEXTEND
  0
POINT
  5
31036
330
30E8B
100
AcDbEntity
  8
Defpoints
 62
     0
100
AcDbPoint
 10
198399.5577231221
 20
12125.09353227235
 30
0.0
  0
POINT
  5
31037
330
30E8B
100
AcDbEntity
  8
Defpoints
 62
     0
100
AcDbPoint
 10
198949.5577231221
 20
12122.59353227235
 30
0.0
  0
POINT
  5
31038
330
30E8B
100
AcDbEntity
  8
Defpoints
 62
     0
100
AcDbPoint
 10
198949.5577231221
 20
12028.18379060711
 30
0.0
  0
ENDBLK
  5
30E96
330
30E8B
100
AcDbEntity
  8
0
100
AcDbBlockEnd
  0
BLOCK
  5
30EA1
330
30E97
100
AcDbEntity
  8
0
100
AcDbBlockBegin
  2
*D12
 70
     1
 10
0.0
 20
0.0
 30
0.0
  3
*D12
  1

  0
LINE
  5
31039
330
30E97
100
AcDbEntity
  8
D-STR-DIM　寸法線、寸法値
 62
     0
370
    -2
100
AcDbLine
 10
198949.5577231221
 20
12098.59353227235
 30
0.0
 11
198949.5577231221
 21
12010.18379060711
 31
0.0
  0
LINE
  5
3103A
330
30E97
100
AcDbEntity
  8
D-STR-DIM　寸法線、寸法値
 62
     0
370
    -2
100
AcDbLine
 10
199649.5577231221
 20
12098.59353227235
 30
0.0
 11
199649.5577231221
 21
12010.18379060711
 31
0.0
  0
LINE
  5
3103B
330
30E97
100
AcDbEntity
  8
D-STR-DIM　寸法線、寸法値
 62
     0
370
    -2
100
AcDbLine
 10
198949.5577231221
 20
12028.18379060711
 30
0.0
 11
199649.5577231221
 21
12028.18379060711
 31
0.0
  0
INSERT
  5
3103C
330
30E97
100
AcDbEntity
  8
D-STR-DIM　寸法線、寸法値
 62
     0
370
    -2
100
AcDbBlockReference
  2
_DotSmall
 10
198949.5577231221
 20
12028.18379060711
 30
0.0
 41
45.0
 42
45.0
 43
45.0
 50
180.0
  0
INSERT
  5
3103D
330
30E97
100
AcDbEntity
  8
D-STR-DIM　寸法線、寸法値
 62
     0
370
    -2
100
AcDbBlockReference
  2
_DotSmall
 10
199649.5577231221
 20
12028.18379060711
 30
0.0
 41
45.0
 42
45.0
 43
45.0
  0
MTEXT
  5
3103E
330
30E97
100
AcDbEntity
  8
D-STR-DIM　寸法線、寸法値
 62
     0
100
AcDbMText
 10
199299.5577231221
 20
12060.25019060711
 30
0.0
 40
37.5
 41
0.0
 71
     5
 72
     1
  1
\A1;700
  7
YOKO_GOTHIC
 73
     1
 44
1.0
1001
ACAD
1000
MTEXTBEGIN
1070
    73
1070
     1
1070
    44
1040
1.0
1070
    74
1070
     0
1000
MTEXTEND
  0
POINT
  5
3103F
330
30E97
100
AcDbEntity
  8
Defpoints
 62
     0
100
AcDbPoint
 10
198949.5577231221
 20
12122.59353227235
 30
0.0
  0
POINT
  5
31040
330
30E97
100
AcDbEntity
  8
Defpoints
 62
     0
100
AcDbPoint
 10
199649.5577231221
 20
12122.59353227235
 30
0.0
  0
POINT
  5
31041
330
30E97
100
AcDbEntity
  8
Defpoints
 62
     0
100
AcDbPoint
 10
199649.5577231221
 20
12028.18379060711
 30
0.0
  0
ENDBLK
  5
30EA2
330
30E97
100
AcDbEntity
  8
0
100
AcDbBlockEnd
  0
BLOCK
  5
30EAD
330
30EA3
100
AcDbEntity
  8
0
100
AcDbBlockBegin
  2
*D13
 70
     1
 10
0.0
 20
0.0
 30
0.0
  3
*D13
  1

  0
LINE
  5
31042
330
30EA3
100
AcDbEntity
  8
D-STR-DIM　寸法線、寸法値
 62
     0
370
    -2
100
AcDbLine
 10
199649.5577231221
 20
12098.59353227235
 30
0.0
 11
199649.5577231221
 21
12010.18379060711
 31
0.0
  0
LINE
  5
31043
330
30EA3
100
AcDbEntity
  8
D-STR-DIM　寸法線、寸法値
 62
     0
370
    -2
100
AcDbLine
 10
200199.5577231221
 20
12101.09353227235
 30
0.0
 11
200199.5577231221
 21
12010.18379060711
 31
0.0
  0
LINE
  5
31044
330
30EA3
100
AcDbEntity
  8
D-STR-DIM　寸法線、寸法値
 62
     0
370
    -2
100
AcDbLine
 10
199649.5577231221
 20
12028.18379060711
 30
0.0
 11
200199.5577231221
 21
12028.18379060711
 31
0.0
  0
INSERT
  5
31045
330
30EA3
100
AcDbEntity
  8
D-STR-DIM　寸法線、寸法値
 62
     0
370
    -2
100
AcDbBlockReference
  2
_DotSmall
 10
199649.5577231221
 20
12028.18379060711
 30
0.0
 41
45.0
 42
45.0
 43
45.0
 50
180.0
  0
INSERT
  5
31046
330
30EA3
100
AcDbEntity
  8
D-STR-DIM　寸法線、寸法値
 62
     0
370
    -2
100
AcDbBlockReference
  2
_DotSmall
 10
200199.5577231221
 20
12028.18379060711
 30
0.0
 41
45.0
 42
45.0
 43
45.0
  0
MTEXT
  5
31047
330
30EA3
100
AcDbEntity
  8
D-STR-DIM　寸法線、寸法値
 62
     0
100
AcDbMText
 10
199924.5577231221
 20
12060.25019060711
 30
0.0
 40
37.5
 41
0.0
 71
     5
 72
     1
  1
\A1;550
  7
YOKO_GOTHIC
 73
     1
 44
1.0
1001
ACAD
1000
MTEXTBEGIN
1070
    73
1070
     1
1070
    44
1040
1.0
1070
    74
1070
     0
1000
MTEXTEND
  0
POINT
  5
31048
330
30EA3
100
AcDbEntity
  8
Defpoints
 62
     0
100
AcDbPoint
 10
199649.5577231221
 20
12122.59353227235
 30
0.0
  0
POINT
  5
31049
330
30EA3
100
AcDbEntity
  8
Defpoints
 62
     0
100
AcDbPoint
 10
200199.5577231221
 20
12125.09353227235
 30
0.0
  0
POINT
  5
3104A
330
30EA3
100
AcDbEntity
  8
Defpoints
 62
     0
100
AcDbPoint
 10
200199.5577231221
 20
12028.18379060711
 30
0.0
  0
ENDBLK
  5
30EAE
330
30EA3
100
AcDbEntity
  8
0
100
AcDbBlockEnd
  0
BLOCK
  5
30EB9
330
30EAF
100
AcDbEntity
  8
0
100
AcDbBlockBegin
  2
*D14
 70
     1
 10
0.0
 20
0.0
 30
0.0
  3
*D14
  1

  0
LINE
  5
3104B
330
30EAF
100
AcDbEntity
  8
D-STR-DIM　寸法線、寸法値
 62
     0
370
    -2
100
AcDbLine
 10
198375.5577231221
 20
12520.09353227235
 30
0.0
 11
198282.8725614651
 21
12520.09353227235
 31
0.0
  0
LINE
  5
3104C
330
30EAF
100
AcDbEntity
  8
D-STR-DIM　寸法線、寸法値
 62
     0
370
    -2
100
AcDbLine
 10
198375.5577231221
 20
12125.09353227235
 30
0.0
 11
198282.8725614651
 21
12125.09353227235
 31
0.0
  0
LINE
  5
3104D
330
30EAF
100
AcDbEntity
  8
D-STR-DIM　寸法線、寸法値
 62
     0
370
    -2
100
AcDbLine
 10
198300.8725614651
 20
12520.09353227235
 30
0.0
 11
198300.8725614651
 21
12125.09353227235
 31
0.0
  0
INSERT
  5
3104E
330
30EAF
100
AcDbEntity
  8
D-STR-DIM　寸法線、寸法値
 62
     0
370
    -2
100
AcDbBlockReference
  2
_DotSmall
 10
198300.8725614651
 20
12520.09353227235
 30
0.0
 41
45.0
 42
45.0
 43
45.0
 50
90.0
  0
INSERT
  5
3104F
330
30EAF
100
AcDbEntity
  8
D-STR-DIM　寸法線、寸法値
 62
     0
370
    -2
100
AcDbBlockReference
  2
_DotSmall
 10
198300.8725614651
 20
12125.09353227235
 30
0.0
 41
45.0
 42
45.0
 43
45.0
 50
270.0
  0
MTEXT
  5
31050
330
30EAF
100
AcDbEntity
  8
D-STR-DIM　寸法線、寸法値
 62
     0
100
AcDbMText
 10
198268.8061614651
 20
12322.59353227238
 30
0.0
 40
37.5
 41
0.0
 71
     5
 72
     1
  1
\A1;395
  7
YOKO_GOTHIC
 11
0.0000000000000001
 21
1.0
 31
0.0
 73
     1
 44
1.0
1001
ACAD
1000
MTEXTBEGIN
1070
    73
1070
     1
1070
    44
1040
1.0
1070
    74
1070
     0
1000
MTEXTEND
  0
POINT
  5
31051
330
30EAF
100
AcDbEntity
  8
Defpoints
 62
     0
100
AcDbPoint
 10
198399.5577231221
 20
12520.09353227235
 30
0.0
  0
POINT
  5
31052
330
30EAF
100
AcDbEntity
  8
Defpoints
 62
     0
100
AcDbPoint
 10
198399.5577231221
 20
12125.09353227235
 30
0.0
  0
POINT
  5
31053
330
30EAF
100
AcDbEntity
  8
Defpoints
 62
     0
100
AcDbPoint
 10
198300.8725614651
 20
12125.09353227235
 30
0.0
  0
ENDBLK
  5
30EBA
330
30EAF
100
AcDbEntity
  8
0
100
AcDbBlockEnd
  0
BLOCK
  5
30EC5
330
30EBB
100
AcDbEntity
  8
0
100
AcDbBlockBegin
  2
*D15
 70
     1
 10
0.0
 20
0.0
 30
0.0
  3
*D15
  1

  0
LINE
  5
31054
330
30EBB
100
AcDbEntity
  8
D-STR-DIM　寸法線、寸法値
 62
     0
370
    -2
100
AcDbLine
 10
198399.5577231221
 20
10976.11246295358
 30
0.0
 11
198399.5577231221
 21
11237.38112155621
 31
0.0
  0
LINE
  5
31055
330
30EBB
100
AcDbEntity
  8
D-STR-DIM　寸法線、寸法値
 62
     0
370
    -2
100
AcDbLine
 10
198599.5577231221
 20
10976.11246295358
 30
0.0
 11
198599.5577231221
 21
11237.38112155621
 31
0.0
  0
LINE
  5
31056
330
30EBB
100
AcDbEntity
  8
D-STR-DIM　寸法線、寸法値
 62
     0
370
    -2
100
AcDbLine
 10
198399.5577231221
 20
11219.38112155622
 30
0.0
 11
198599.5577231221
 21
11219.38112155622
 31
0.0
  0
INSERT
  5
31057
330
30EBB
100
AcDbEntity
  8
D-STR-DIM　寸法線、寸法値
 62
     0
370
    -2
100
AcDbBlockReference
  2
_DotSmall
 10
198399.5577231221
 20
11219.38112155622
 30
0.0
 41
45.0
 42
45.0
 43
45.0
 50
180.0
  0
INSERT
  5
31058
330
30EBB
100
AcDbEntity
  8
D-STR-DIM　寸法線、寸法値
 62
     0
370
    -2
100
AcDbBlockReference
  2
_DotSmall
 10
198599.5577231221
 20
11219.38112155622
 30
0.0
 41
45.0
 42
45.0
 43
45.0
  0
MTEXT
  5
31059
330
30EBB
100
AcDbEntity
  8
D-STR-DIM　寸法線、寸法値
 62
     0
100
AcDbMText
 10
198499.5577231221
 20
11251.44752155621
 30
0.0
 40
37.5
 41
0.0
 71
     5
 72
     1
  1
\A1;200
  7
YOKO_GOTHIC
 73
     1
 44
1.0
1001
ACAD
1000
MTEXTBEGIN
1070
    73
1070
     1
1070
    44
1040
1.0
1070
    74
1070
     0
1000
MTEXTEND
  0
POINT
  5
3105A
330
30EBB
100
AcDbEntity
  8
Defpoints
 62
     0
100
AcDbPoint
 10
198399.5577231221
 20
10952.11246295358
 30
0.0
  0
POINT
  5
3105B
330
30EBB
100
AcDbEntity
  8
Defpoints
 62
     0
100
AcDbPoint
 10
198599.5577231221
 20
10952.11246295358
 30
0.0
  0
POINT
  5
3105C
330
30EBB
100
AcDbEntity
  8
Defpoints
 62
     0
100
AcDbPoint
 10
198599.5577231221
 20
11219.38112155622
 30
0.0
  0
ENDBLK
  5
30EC6
330
30EBB
100
AcDbEntity
  8
0
100
AcDbBlockEnd
  0
BLOCK
  5
30ED1
330
30EC7
100
AcDbEntity
  8
0
100
AcDbBlockBegin
  2
*D16
 70
     1
 10
0.0
 20
0.0
 30
0.0
  3
*D16
  1

  0
LINE
  5
3105D
330
30EC7
100
AcDbEntity
  8
D-STR-DIM　寸法線、寸法値
 62
     0
370
    -2
100
AcDbLine
 10
198599.5577231221
 20
10976.11246295358
 30
0.0
 11
198599.5577231221
 21
11237.38112155621
 31
0.0
  0
LINE
  5
3105E
330
30EC7
100
AcDbEntity
  8
D-STR-DIM　寸法線、寸法値
 62
     0
370
    -2
100
AcDbLine
 10
199299.5577354605
 20
10978.2124537983
 30
0.0
 11
199299.5577354605
 21
11237.38112155621
 31
0.0
  0
LINE
  5
3105F
330
30EC7
100
AcDbEntity
  8
D-STR-DIM　寸法線、寸法値
 62
     0
370
    -2
100
AcDbLine
 10
198599.5577231221
 20
11219.38112155622
 30
0.0
 11
199299.5577354605
 21
11219.38112155622
 31
0.0
  0
INSERT
  5
31060
330
30EC7
100
AcDbEntity
  8
D-STR-DIM　寸法線、寸法値
 62
     0
370
    -2
100
AcDbBlockReference
  2
_DotSmall
 10
198599.5577231221
 20
11219.38112155622
 30
0.0
 41
45.0
 42
45.0
 43
45.0
 50
180.0
  0
INSERT
  5
31061
330
30EC7
100
AcDbEntity
  8
D-STR-DIM　寸法線、寸法値
 62
     0
370
    -2
100
AcDbBlockReference
  2
_DotSmall
 10
199299.5577354605
 20
11219.38112155622
 30
0.0
 41
45.0
 42
45.0
 43
45.0
  0
MTEXT
  5
31062
330
30EC7
100
AcDbEntity
  8
D-STR-DIM　寸法線、寸法値
 62
     0
100
AcDbMText
 10
198949.5577292913
 20
11251.44752155621
 30
0.0
 40
37.5
 41
0.0
 71
     5
 72
     1
  1
\A1;700
  7
YOKO_GOTHIC
 73
     1
 44
1.0
1001
ACAD
1000
MTEXTBEGIN
1070
    73
1070
     1
1070
    44
1040
1.0
1070
    74
1070
     0
1000
MTEXTEND
  0
POINT
  5
31063
330
30EC7
100
AcDbEntity
  8
Defpoints
 62
     0
100
AcDbPoint
 10
198599.5577231221
 20
10952.11246295358
 30
0.0
  0
POINT
  5
31064
330
30EC7
100
AcDbEntity
  8
Defpoints
 62
     0
100
AcDbPoint
 10
199299.5577354605
 20
10954.2124537983
 30
0.0
  0
POINT
  5
31065
330
30EC7
100
AcDbEntity
  8
Defpoints
 62
     0
100
AcDbPoint
 10
199299.5577354605
 20
11219.38112155622
 30
0.0
  0
ENDBLK
  5
30ED2
330
30EC7
100
AcDbEntity
  8
0
100
AcDbBlockEnd
  0
BLOCK
  5
30EDD
330
30ED3
100
AcDbEntity
  8
0
100
AcDbBlockBegin
  2
*D17
 70
     1
 10
0.0
 20
0.0
 30
0.0
  3
*D17
  1

  0
LINE
  5
31066
330
30ED3
100
AcDbEntity
  8
D-STR-DIM　寸法線、寸法値
 62
     0
370
    -2
100
AcDbLine
 10
199299.5577354605
 20
10978.2124537983
 30
0.0
 11
199299.5577354605
 21
11237.38112155621
 31
0.0
  0
LINE
  5
31067
330
30ED3
100
AcDbEntity
  8
D-STR-DIM　寸法線、寸法値
 62
     0
370
    -2
100
AcDbLine
 10
199999.5577354605
 20
10978.2124537983
 30
0.0
 11
199999.5577354605
 21
11237.38112155621
 31
0.0
  0
LINE
  5
31068
330
30ED3
100
AcDbEntity
  8
D-STR-DIM　寸法線、寸法値
 62
     0
370
    -2
100
AcDbLine
 10
199299.5577354605
 20
11219.38112155622
 30
0.0
 11
199999.5577354605
 21
11219.38112155622
 31
0.0
  0
INSERT
  5
31069
330
30ED3
100
AcDbEntity
  8
D-STR-DIM　寸法線、寸法値
 62
     0
370
    -2
100
AcDbBlockReference
  2
_DotSmall
 10
199299.5577354605
 20
11219.38112155622
 30
0.0
 41
45.0
 42
45.0
 43
45.0
 50
180.0
  0
INSERT
  5
3106A
330
30ED3
100
AcDbEntity
  8
D-STR-DIM　寸法線、寸法値
 62
     0
370
    -2
100
AcDbBlockReference
  2
_DotSmall
 10
199999.5577354605
 20
11219.38112155622
 30
0.0
 41
45.0
 42
45.0
 43
45.0
  0
MTEXT
  5
3106B
330
30ED3
100
AcDbEntity
  8
D-STR-DIM　寸法線、寸法値
 62
     0
100
AcDbMText
 10
199649.5577354605
 20
11251.44752155621
 30
0.0
 40
37.5
 41
0.0
 71
     5
 72
     1
  1
\A1;700
  7
YOKO_GOTHIC
 73
     1
 44
1.0
1001
ACAD
1000
MTEXTBEGIN
1070
    73
1070
     1
1070
    44
1040
1.0
1070
    74
1070
     0
1000
MTEXTEND
  0
POINT
  5
3106C
330
30ED3
100
AcDbEntity
  8
Defpoints
 62
     0
100
AcDbPoint
 10
199299.5577354605
 20
10954.2124537983
 30
0.0
  0
POINT
  5
3106D
330
30ED3
100
AcDbEntity
  8
Defpoints
 62
     0
100
AcDbPoint
 10
199999.5577354605
 20
10954.2124537983
 30
0.0
  0
POINT
  5
3106E
330
30ED3
100
AcDbEntity
  8
Defpoints
 62
     0
100
AcDbPoint
 10
199999.5577354605
 20
11219.38112155622
 30
0.0
  0
ENDBLK
  5
30EDE
330
30ED3
100
AcDbEntity
  8
0
100
AcDbBlockEnd
  0
BLOCK
  5
30EE9
330
30EDF
100
AcDbEntity
  8
0
100
AcDbBlockBegin
  2
*D18
 70
     1
 10
0.0
 20
0.0
 30
0.0
  3
*D18
  1

  0
LINE
  5
3106F
330
30EDF
100
AcDbEntity
  8
D-STR-DIM　寸法線、寸法値
 62
     0
370
    -2
100
AcDbLine
 10
199999.5577354605
 20
10978.2124537983
 30
0.0
 11
199999.5577354605
 21
11237.38112155621
 31
0.0
  0
LINE
  5
31070
330
30EDF
100
AcDbEntity
  8
D-STR-DIM　寸法線、寸法値
 62
     0
370
    -2
100
AcDbLine
 10
200199.5577231221
 20
10976.11246295358
 30
0.0
 11
200199.5577231221
 21
11237.38112155621
 31
0.0
  0
LINE
  5
31071
330
30EDF
100
AcDbEntity
  8
D-STR-DIM　寸法線、寸法値
 62
     0
370
    -2
100
AcDbLine
 10
199999.5577354605
 20
11219.38112155622
 30
0.0
 11
200199.5577231221
 21
11219.38112155622
 31
0.0
  0
INSERT
  5
31072
330
30EDF
100
AcDbEntity
  8
D-STR-DIM　寸法線、寸法値
 62
     0
370
    -2
100
AcDbBlockReference
  2
_DotSmall
 10
199999.5577354605
 20
11219.38112155622
 30
0.0
 41
45.0
 42
45.0
 43
45.0
 50
180.0
  0
INSERT
  5
31073
330
30EDF
100
AcDbEntity
  8
D-STR-DIM　寸法線、寸法値
 62
     0
370
    -2
100
AcDbBlockReference
  2
_DotSmall
 10
200199.5577231221
 20
11219.38112155622
 30
0.0
 41
45.0
 42
45.0
 43
45.0
  0
MTEXT
  5
31074
330
30EDF
100
AcDbEntity
  8
D-STR-DIM　寸法線、寸法値
 62
     0
100
AcDbMText
 10
200099.5577292913
 20
11251.44752155621
 30
0.0
 40
37.5
 41
0.0
 71
     5
 72
     1
  1
\A1;200
  7
YOKO_GOTHIC
 73
     1
 44
1.0
1001
ACAD
1000
MTEXTBEGIN
1070
    73
1070
     1
1070
    44
1040
1.0
1070
    74
1070
     0
1000
MTEXTEND
  0
POINT
  5
31075
330
30EDF
100
AcDbEntity
  8
Defpoints
 62
     0
100
AcDbPoint
 10
199999.5577354605
 20
10954.2124537983
 30
0.0
  0
POINT
  5
31076
330
30EDF
100
AcDbEntity
  8
Defpoints
 62
     0
100
AcDbPoint
 10
200199.5577231221
 20
10952.11246295358
 30
0.0
  0
POINT
  5
31077
330
30EDF
100
AcDbEntity
  8
Defpoints
 62
     0
100
AcDbPoint
 10
200199.5577231221
 20
11219.38112155622
 30
0.0
  0
ENDBLK
  5
30EEA
330
30EDF
100
AcDbEntity
  8
0
100
AcDbBlockEnd
  0
BLOCK
  5
30EF5
330
30EEB
100
AcDbEntity
  8
0
100
AcDbBlockBegin
  2
*D19
 70
     1
 10
0.0
 20
0.0
 30
0.0
  3
*D19
  1

  0
LINE
  5
31078
330
30EEB
100
AcDbEntity
  8
D-STR-DIM　寸法線、寸法値
 62
     0
370
    -2
100
AcDbLine
 10
198399.5577231221
 20
10976.11246295358
 30
0.0
 11
198399.5577231221
 21
11325.68016204421
 31
0.0
  0
LINE
  5
31079
330
30EEB
100
AcDbEntity
  8
D-STR-DIM　寸法線、寸法値
 62
     0
370
    -2
100
AcDbLine
 10
200199.5577231221
 20
10976.11246295358
 30
0.0
 11
200199.5577231221
 21
11325.68016204421
 31
0.0
  0
LINE
  5
3107A
330
30EEB
100
AcDbEntity
  8
D-STR-DIM　寸法線、寸法値
 62
     0
370
    -2
100
AcDbLine
 10
198399.5577231221
 20
11307.68016204421
 30
0.0
 11
200199.5577231221
 21
11307.68016204421
 31
0.0
  0
INSERT
  5
3107B
330
30EEB
100
AcDbEntity
  8
D-STR-DIM　寸法線、寸法値
 62
     0
370
    -2
100
AcDbBlockReference
  2
_DotSmall
 10
198399.5577231221
 20
11307.68016204421
 30
0.0
 41
45.0
 42
45.0
 43
45.0
 50
180.0
  0
INSERT
  5
3107C
330
30EEB
100
AcDbEntity
  8
D-STR-DIM　寸法線、寸法値
 62
     0
370
    -2
100
AcDbBlockReference
  2
_DotSmall
 10
200199.5577231221
 20
11307.68016204421
 30
0.0
 41
45.0
 42
45.0
 43
45.0
  0
MTEXT
  5
3107D
330
30EEB
100
AcDbEntity
  8
D-STR-DIM　寸法線、寸法値
 62
     0
100
AcDbMText
 10
199299.5577231221
 20
11339.74656204421
 30
0.0
 40
37.5
 41
0.0
 71
     5
 72
     1
  1
\A1;1800
  7
YOKO_GOTHIC
 73
     1
 44
1.0
1001
ACAD
1000
MTEXTBEGIN
1070
    73
1070
     1
1070
    44
1040
1.0
1070
    74
1070
     0
1000
MTEXTEND
  0
POINT
  5
3107E
330
30EEB
100
AcDbEntity
  8
Defpoints
 62
     0
100
AcDbPoint
 10
198399.5577231221
 20
10952.11246295358
 30
0.0
  0
POINT
  5
3107F
330
30EEB
100
AcDbEntity
  8
Defpoints
 62
     0
100
AcDbPoint
 10
200199.5577231221
 20
10952.11246295358
 30
0.0
  0
POINT
  5
31080
330
30EEB
100
AcDbEntity
  8
Defpoints
 62
     0
100
AcDbPoint
 10
200199.5577231221
 20
11307.68016204421
 30
0.0
  0
ENDBLK
  5
30EF6
330
30EEB
100
AcDbEntity
  8
0
100
AcDbBlockEnd
  0
BLOCK
  5
30F01
330
30EF7
100
AcDbEntity
  8
0
100
AcDbBlockBegin
  2
*D20
 70
     1
 10
0.0
 20
0.0
 30
0.0
  3
*D20
  1

  0
LINE
  5
31081
330
30EF7
100
AcDbEntity
  8
D-STR-DIM　寸法線、寸法値
 62
     0
370
    -2
100
AcDbLine
 10
198375.5577231221
 20
10952.11246295358
 30
0.0
 11
198293.6100175506
 21
10952.11246295358
 31
0.0
  0
LINE
  5
31082
330
30EF7
100
AcDbEntity
  8
D-STR-DIM　寸法線、寸法値
 62
     0
370
    -2
100
AcDbLine
 10
198545.3077231221
 20
10552.11246295358
 30
0.0
 11
198293.6100175506
 21
10552.11246295358
 31
0.0
  0
LINE
  5
31083
330
30EF7
100
AcDbEntity
  8
D-STR-DIM　寸法線、寸法値
 62
     0
370
    -2
100
AcDbLine
 10
198311.6100175507
 20
10952.11246295358
 30
0.0
 11
198311.6100175507
 21
10552.11246295358
 31
0.0
  0
INSERT
  5
31084
330
30EF7
100
AcDbEntity
  8
D-STR-DIM　寸法線、寸法値
 62
     0
370
    -2
100
AcDbBlockReference
  2
_DotSmall
 10
198311.6100175507
 20
10952.11246295358
 30
0.0
 41
45.0
 42
45.0
 43
45.0
 50
90.0
  0
INSERT
  5
31085
330
30EF7
100
AcDbEntity
  8
D-STR-DIM　寸法線、寸法値
 62
     0
370
    -2
100
AcDbBlockReference
  2
_DotSmall
 10
198311.6100175507
 20
10552.11246295358
 30
0.0
 41
45.0
 42
45.0
 43
45.0
 50
270.0
  0
MTEXT
  5
31086
330
30EF7
100
AcDbEntity
  8
D-STR-DIM　寸法線、寸法値
 62
     0
100
AcDbMText
 10
198279.5436175506
 20
10752.11246295361
 30
0.0
 40
37.5
 41
0.0
 71
     5
 72
     1
  1
\A1;400
  7
YOKO_GOTHIC
 11
0.0000000000000001
 21
1.0
 31
0.0
 73
     1
 44
1.0
1001
ACAD
1000
MTEXTBEGIN
1070
    73
1070
     1
1070
    44
1040
1.0
1070
    74
1070
     0
1000
MTEXTEND
  0
POINT
  5
31087
330
30EF7
100
AcDbEntity
  8
Defpoints
 62
     0
100
AcDbPoint
 10
198399.5577231221
 20
10952.11246295358
 30
0.0
  0
POINT
  5
31088
330
30EF7
100
AcDbEntity
  8
Defpoints
 62
     0
100
AcDbPoint
 10
198569.3077231221
 20
10552.11246295358
 30
0.0
  0
POINT
  5
31089
330
30EF7
100
AcDbEntity
  8
Defpoints
 62
     0
100
AcDbPoint
 10
198311.6100175507
 20
10552.11246295358
 30
0.0
  0
ENDBLK
  5
30F02
330
30EF7
100
AcDbEntity
  8
0
100
AcDbBlockEnd
  0
BLOCK
  5
30F0D
330
30F03
100
AcDbEntity
  8
0
100
AcDbBlockBegin
  2
*D21
 70
     1
 10
0.0
 20
0.0
 30
0.0
  3
*D21
  1

  0
LINE
  5
3108A
330
30F03
100
AcDbEntity
  8
D-STR-DIM　寸法線、寸法値
 62
     0
370
    -2
100
AcDbLine
 10
198545.3077231221
 20
10552.11246295358
 30
0.0
 11
198293.6100175506
 21
10552.11246295358
 31
0.0
  0
LINE
  5
3108B
330
30F03
100
AcDbEntity
  8
D-STR-DIM　寸法線、寸法値
 62
     0
370
    -2
100
AcDbLine
 10
198425.5577231221
 20
10452.11246295357
 30
0.0
 11
198293.6100175506
 21
10452.11246295357
 31
0.0
  0
LINE
  5
3108C
330
30F03
100
AcDbEntity
  8
D-STR-DIM　寸法線、寸法値
 62
     0
370
    -2
100
AcDbLine
 10
198311.6100175507
 20
10552.11246295358
 30
0.0
 11
198311.6100175507
 21
10452.11246295357
 31
0.0
  0
INSERT
  5
3108D
330
30F03
100
AcDbEntity
  8
D-STR-DIM　寸法線、寸法値
 62
     0
370
    -2
100
AcDbBlockReference
  2
_DotSmall
 10
198311.6100175507
 20
10552.11246295358
 30
0.0
 41
45.0
 42
45.0
 43
45.0
 50
90.0
  0
INSERT
  5
3108E
330
30F03
100
AcDbEntity
  8
D-STR-DIM　寸法線、寸法値
 62
     0
370
    -2
100
AcDbBlockReference
  2
_DotSmall
 10
198311.6100175507
 20
10452.11246295357
 30
0.0
 41
45.0
 42
45.0
 43
45.0
 50
270.0
  0
MTEXT
  5
3108F
330
30F03
100
AcDbEntity
  8
D-STR-DIM　寸法線、寸法値
 62
     0
100
AcDbMText
 10
198279.5436175506
 20
10502.11246295361
 30
0.0
 40
37.5
 41
0.0
 71
     5
 72
     1
  1
\A1;100
  7
YOKO_GOTHIC
 11
0.0000000000000001
 21
1.0
 31
0.0
 73
     1
 44
1.0
1001
ACAD
1000
MTEXTBEGIN
1070
    73
1070
     1
1070
    44
1040
1.0
1070
    74
1070
     0
1000
MTEXTEND
  0
POINT
  5
31090
330
30F03
100
AcDbEntity
  8
Defpoints
 62
     0
100
AcDbPoint
 10
198569.3077231221
 20
10552.11246295358
 30
0.0
  0
POINT
  5
31091
330
30F03
100
AcDbEntity
  8
Defpoints
 62
     0
100
AcDbPoint
 10
198449.5577231221
 20
10452.11246295357
 30
0.0
  0
POINT
  5
31092
330
30F03
100
AcDbEntity
  8
Defpoints
 62
     0
100
AcDbPoint
 10
198311.6100175507
 20
10452.11246295357
 30
0.0
  0
ENDBLK
  5
30F0E
330
30F03
100
AcDbEntity
  8
0
100
AcDbBlockEnd
  0
BLOCK
  5
30F19
330
30F0F
100
AcDbEntity
  8
0
100
AcDbBlockBegin
  2
*D22
 70
     1
 10
0.0
 20
0.0
 30
0.0
  3
*D22
  1

  0
LINE
  5
31093
330
30F0F
100
AcDbEntity
  8
D-STR-DIM　寸法線、寸法値
 62
     0
370
    -2
100
AcDbLine
 10
198425.5577231221
 20
10452.11246295357
 30
0.0
 11
198293.6100175506
 21
10452.11246295357
 31
0.0
  0
LINE
  5
31094
330
30F0F
100
AcDbEntity
  8
D-STR-DIM　寸法線、寸法値
 62
     0
370
    -2
100
AcDbLine
 10
198375.5577231221
 20
10152.11246295357
 30
0.0
 11
198293.6100175506
 21
10152.11246295357
 31
0.0
  0
LINE
  5
31095
330
30F0F
100
AcDbEntity
  8
D-STR-DIM　寸法線、寸法値
 62
     0
370
    -2
100
AcDbLine
 10
198311.6100175507
 20
10452.11246295357
 30
0.0
 11
198311.6100175507
 21
10152.11246295357
 31
0.0
  0
INSERT
  5
31096
330
30F0F
100
AcDbEntity
  8
D-STR-DIM　寸法線、寸法値
 62
     0
370
    -2
100
AcDbBlockReference
  2
_DotSmall
 10
198311.6100175507
 20
10452.11246295357
 30
0.0
 41
45.0
 42
45.0
 43
45.0
 50
90.0
  0
INSERT
  5
31097
330
30F0F
100
AcDbEntity
  8
D-STR-DIM　寸法線、寸法値
 62
     0
370
    -2
100
AcDbBlockReference
  2
_DotSmall
 10
198311.6100175507
 20
10152.11246295357
 30
0.0
 41
45.0
 42
45.0
 43
45.0
 50
270.0
  0
MTEXT
  5
31098
330
30F0F
100
AcDbEntity
  8
D-STR-DIM　寸法線、寸法値
 62
     0
100
AcDbMText
 10
198279.5436175506
 20
10302.1124629536
 30
0.0
 40
37.5
 41
0.0
 71
     5
 72
     1
  1
\A1;300
  7
YOKO_GOTHIC
 11
0.0000000000000001
 21
1.0
 31
0.0
 73
     1
 44
1.0
1001
ACAD
1000
MTEXTBEGIN
1070
    73
1070
     1
1070
    44
1040
1.0
1070
    74
1070
     0
1000
MTEXTEND
  0
POINT
  5
31099
330
30F0F
100
AcDbEntity
  8
Defpoints
 62
     0
100
AcDbPoint
 10
198449.5577231221
 20
10452.11246295357
 30
0.0
  0
POINT
  5
3109A
330
30F0F
100
AcDbEntity
  8
Defpoints
 62
     0
100
AcDbPoint
 10
198399.5577231221
 20
10152.11246295357
 30
0.0
  0
POINT
  5
3109B
330
30F0F
100
AcDbEntity
  8
Defpoints
 62
     0
100
AcDbPoint
 10
198311.6100175507
 20
10152.11246295357
 30
0.0
  0
ENDBLK
  5
30F1A
330
30F0F
100
AcDbEntity
  8
0
100
AcDbBlockEnd
  0
BLOCK
  5
30F25
330
30F1B
100
AcDbEntity
  8
0
100
AcDbBlockBegin
  2
*D23
 70
     1
 10
0.0
 20
0.0
 30
0.0
  3
*D23
  1

  0
LINE
  5
3109C
330
30F1B
100
AcDbEntity
  8
D-STR-DIM　寸法線、寸法値
 62
     0
370
    -2
100
AcDbLine
 10
198375.5577231221
 20
10152.11246295357
 30
0.0
 11
198293.6100175506
 21
10152.11246295357
 31
0.0
  0
LINE
  5
3109D
330
30F1B
100
AcDbEntity
  8
D-STR-DIM　寸法線、寸法値
 62
     0
370
    -2
100
AcDbLine
 10
198375.5577231221
 20
10052.11246295357
 30
0.0
 11
198293.6100175506
 21
10052.11246295357
 31
0.0
  0
LINE
  5
3109E
330
30F1B
100
AcDbEntity
  8
D-STR-DIM　寸法線、寸法値
 62
     0
370
    -2
100
AcDbLine
 10
198311.6100175507
 20
10152.11246295357
 30
0.0
 11
198311.6100175507
 21
10052.11246295357
 31
0.0
  0
INSERT
  5
3109F
330
30F1B
100
AcDbEntity
  8
D-STR-DIM　寸法線、寸法値
 62
     0
370
    -2
100
AcDbBlockReference
  2
_DotSmall
 10
198311.6100175507
 20
10152.11246295357
 30
0.0
 41
45.0
 42
45.0
 43
45.0
 50
90.0
  0
INSERT
  5
310A0
330
30F1B
100
AcDbEntity
  8
D-STR-DIM　寸法線、寸法値
 62
     0
370
    -2
100
AcDbBlockReference
  2
_DotSmall
 10
198311.6100175507
 20
10052.11246295357
 30
0.0
 41
45.0
 42
45.0
 43
45.0
 50
270.0
  0
MTEXT
  5
310A1
330
30F1B
100
AcDbEntity
  8
D-STR-DIM　寸法線、寸法値
 62
     0
100
AcDbMText
 10
198279.5436175506
 20
10102.1124629536
 30
0.0
 40
37.5
 41
0.0
 71
     5
 72
     1
  1
\A1;100
  7
YOKO_GOTHIC
 11
0.0000000000000001
 21
1.0
 31
0.0
 73
     1
 44
1.0
1001
ACAD
1000
MTEXTBEGIN
1070
    73
1070
     1
1070
    44
1040
1.0
1070
    74
1070
     0
1000
MTEXTEND
  0
POINT
  5
310A2
330
30F1B
100
AcDbEntity
  8
Defpoints
 62
     0
100
AcDbPoint
 10
198399.5577231221
 20
10152.11246295357
 30
0.0
  0
POINT
  5
310A3
330
30F1B
100
AcDbEntity
  8
Defpoints
 62
     0
100
AcDbPoint
 10
198399.5577231221
 20
10052.11246295357
 30
0.0
  0
POINT
  5
310A4
330
30F1B
100
AcDbEntity
  8
Defpoints
 62
     0
100
AcDbPoint
 10
198311.6100175507
 20
10052.11246295357
 30
0.0
  0
ENDBLK
  5
30F26
330
30F1B
100
AcDbEntity
  8
0
100
AcDbBlockEnd
  0
BLOCK
  5
30F31
330
30F27
100
AcDbEntity
  8
0
100
AcDbBlockBegin
  2
*D24
 70
     1
 10
0.0
 20
0.0
 30
0.0
  3
*D24
  1

  0
LINE
  5
310A5
330
30F27
100
AcDbEntity
  8
D-STR-DIM　寸法線、寸法値
 62
     0
370
    -2
100
AcDbLine
 10
198885.5577231221
 20
11102.11246295357
 30
0.0
 11
198293.6100175506
 21
11102.11246295357
 31
0.0
  0
LINE
  5
310A6
330
30F27
100
AcDbEntity
  8
D-STR-DIM　寸法線、寸法値
 62
     0
370
    -2
100
AcDbLine
 10
198375.5577231221
 20
10952.11246295358
 30
0.0
 11
198293.6100175506
 21
10952.11246295358
 31
0.0
  0
LINE
  5
310A7
330
30F27
100
AcDbEntity
  8
D-STR-DIM　寸法線、寸法値
 62
     0
370
    -2
100
AcDbLine
 10
198311.6100175507
 20
11102.11246295357
 30
0.0
 11
198311.6100175507
 21
10952.11246295358
 31
0.0
  0
INSERT
  5
310A8
330
30F27
100
AcDbEntity
  8
D-STR-DIM　寸法線、寸法値
 62
     0
370
    -2
100
AcDbBlockReference
  2
_DotSmall
 10
198311.6100175507
 20
11102.11246295357
 30
0.0
 41
45.0
 42
45.0
 43
45.0
 50
90.0
  0
INSERT
  5
310A9
330
30F27
100
AcDbEntity
  8
D-STR-DIM　寸法線、寸法値
 62
     0
370
    -2
100
AcDbBlockReference
  2
_DotSmall
 10
198311.6100175507
 20
10952.11246295358
 30
0.0
 41
45.0
 42
45.0
 43
45.0
 50
270.0
  0
MTEXT
  5
310AA
330
30F27
100
AcDbEntity
  8
D-STR-DIM　寸法線、寸法値
 62
     0
100
AcDbMText
 10
198279.5436175506
 20
11027.1124629536
 30
0.0
 40
37.5
 41
0.0
 71
     5
 72
     1
  1
\A1;150
  7
YOKO_GOTHIC
 11
0.0000000000000001
 21
1.0
 31
0.0
 73
     1
 44
1.0
1001
ACAD
1000
MTEXTBEGIN
1070
    73
1070
     1
1070
    44
1040
1.0
1070
    74
1070
     0
1000
MTEXTEND
  0
POINT
  5
310AB
330
30F27
100
AcDbEntity
  8
Defpoints
 62
     0
100
AcDbPoint
 10
198909.5577231221
 20
11102.11246295357
 30
0.0
  0
POINT
  5
310AC
330
30F27
100
AcDbEntity
  8
Defpoints
 62
     0
100
AcDbPoint
 10
198399.5577231221
 20
10952.11246295358
 30
0.0
  0
POINT
  5
310AD
330
30F27
100
AcDbEntity
  8
Defpoints
 62
     0
100
AcDbPoint
 10
198311.6100175507
 20
10952.11246295358
 30
0.0
  0
ENDBLK
  5
30F32
330
30F27
100
AcDbEntity
  8
0
100
AcDbBlockEnd
  0
BLOCK
  5
30F3D
330
30F33
100
AcDbEntity
  8
0
100
AcDbBlockBegin
  2
*D25
 70
     1
 10
0.0
 20
0.0
 30
0.0
  3
*D25
  1

  0
LINE
  5
310AE
330
30F33
100
AcDbEntity
  8
D-STR-DIM　寸法線、寸法値
 62
     0
370
    -2
100
AcDbLine
 10
198885.5577231221
 20
11102.11246295357
 30
0.0
 11
198216.0609990016
 21
11102.11246295357
 31
0.0
  0
LINE
  5
310AF
330
30F33
100
AcDbEntity
  8
D-STR-DIM　寸法線、寸法値
 62
     0
370
    -2
100
AcDbLine
 10
198545.3077231221
 20
10552.11246295358
 30
0.0
 11
198216.0609990016
 21
10552.11246295358
 31
0.0
  0
LINE
  5
310B0
330
30F33
100
AcDbEntity
  8
D-STR-DIM　寸法線、寸法値
 62
     0
370
    -2
100
AcDbLine
 10
198234.0609990016
 20
11102.11246295357
 30
0.0
 11
198234.0609990016
 21
10552.11246295358
 31
0.0
  0
INSERT
  5
310B1
330
30F33
100
AcDbEntity
  8
D-STR-DIM　寸法線、寸法値
 62
     0
370
    -2
100
AcDbBlockReference
  2
_DotSmall
 10
198234.0609990016
 20
11102.11246295357
 30
0.0
 41
45.0
 42
45.0
 43
45.0
 50
90.0
  0
INSERT
  5
310B2
330
30F33
100
AcDbEntity
  8
D-STR-DIM　寸法線、寸法値
 62
     0
370
    -2
100
AcDbBlockReference
  2
_DotSmall
 10
198234.0609990016
 20
10552.11246295358
 30
0.0
 41
45.0
 42
45.0
 43
45.0
 50
270.0
  0
MTEXT
  5
310B3
330
30F33
100
AcDbEntity
  8
D-STR-DIM　寸法線、寸法値
 62
     0
100
AcDbMText
 10
198201.9945990016
 20
10827.1124629536
 30
0.0
 40
37.5
 41
0.0
 71
     5
 72
     1
  1
\A1;550
  7
YOKO_GOTHIC
 11
0.0000000000000001
 21
1.0
 31
0.0
 73
     1
 44
1.0
1001
ACAD
1000
MTEXTBEGIN
1070
    73
1070
     1
1070
    44
1040
1.0
1070
    74
1070
     0
1000
MTEXTEND
  0
POINT
  5
310B4
330
30F33
100
AcDbEntity
  8
Defpoints
 62
     0
100
AcDbPoint
 10
198909.5577231221
 20
11102.11246295357
 30
0.0
  0
POINT
  5
310B5
330
30F33
100
AcDbEntity
  8
Defpoints
 62
     0
100
AcDbPoint
 10
198569.3077231221
 20
10552.11246295358
 30
0.0
  0
POINT
  5
310B6
330
30F33
100
AcDbEntity
  8
Defpoints
 62
     0
100
AcDbPoint
 10
198234.0609990016
 20
10552.11246295358
 30
0.0
  0
ENDBLK
  5
30F3E
330
30F33
100
AcDbEntity
  8
0
100
AcDbBlockEnd
  0
BLOCK
  5
30F49
330
30F3F
100
AcDbEntity
  8
0
100
AcDbBlockBegin
  2
*D26
 70
     1
 10
0.0
 20
0.0
 30
0.0
  3
*D26
  1

  0
LINE
  5
310B7
330
30F3F
100
AcDbEntity
  8
D-STR-DIM　寸法線、寸法値
 62
     0
370
    -2
100
AcDbLine
 10
198545.3077231221
 20
10552.11246295358
 30
0.0
 11
198216.0609990016
 21
10552.11246295358
 31
0.0
  0
LINE
  5
310B8
330
30F3F
100
AcDbEntity
  8
D-STR-DIM　寸法線、寸法値
 62
     0
370
    -2
100
AcDbLine
 10
198375.5577231221
 20
10052.11246295357
 30
0.0
 11
198216.0609990016
 21
10052.11246295357
 31
0.0
  0
LINE
  5
310B9
330
30F3F
100
AcDbEntity
  8
D-STR-DIM　寸法線、寸法値
 62
     0
370
    -2
100
AcDbLine
 10
198234.0609990016
 20
10552.11246295358
 30
0.0
 11
198234.0609990016
 21
10052.11246295357
 31
0.0
  0
INSERT
  5
310BA
330
30F3F
100
AcDbEntity
  8
D-STR-DIM　寸法線、寸法値
 62
     0
370
    -2
100
AcDbBlockReference
  2
_DotSmall
 10
198234.0609990016
 20
10552.11246295358
 30
0.0
 41
45.0
 42
45.0
 43
45.0
 50
90.0
  0
INSERT
  5
310BB
330
30F3F
100
AcDbEntity
  8
D-STR-DIM　寸法線、寸法値
 62
     0
370
    -2
100
AcDbBlockReference
  2
_DotSmall
 10
198234.0609990016
 20
10052.11246295357
 30
0.0
 41
45.0
 42
45.0
 43
45.0
 50
270.0
  0
MTEXT
  5
310BC
330
30F3F
100
AcDbEntity
  8
D-STR-DIM　寸法線、寸法値
 62
     0
100
AcDbMText
 10
198201.9945990016
 20
10302.1124629536
 30
0.0
 40
37.5
 41
0.0
 71
     5
 72
     1
  1
\A1;500
  7
YOKO_GOTHIC
 11
0.0000000000000001
 21
1.0
 31
0.0
 73
     1
 44
1.0
1001
ACAD
1000
MTEXTBEGIN
1070
    73
1070
     1
1070
    44
1040
1.0
1070
    74
1070
     0
1000
MTEXTEND
  0
POINT
  5
310BD
330
30F3F
100
AcDbEntity
  8
Defpoints
 62
     0
100
AcDbPoint
 10
198569.3077231221
 20
10552.11246295358
 30
0.0
  0
POINT
  5
310BE
330
30F3F
100
AcDbEntity
  8
Defpoints
 62
     0
100
AcDbPoint
 10
198399.5577231221
 20
10052.11246295357
 30
0.0
  0
POINT
  5
310BF
330
30F3F
100
AcDbEntity
  8
Defpoints
 62
     0
100
AcDbPoint
 10
198234.0609990016
 20
10052.11246295357
 30
0.0
  0
ENDBLK
  5
30F4A
330
30F3F
100
AcDbEntity
  8
0
100
AcDbBlockEnd
  0
BLOCK
  5
30F55
330
30F4B
100
AcDbEntity
  8
0
100
AcDbBlockBegin
  2
*D27
 70
     1
 10
0.0
 20
0.0
 30
0.0
  3
*D27
  1

  0
LINE
  5
310C0
330
30F4B
100
AcDbEntity
  8
D-STR-DIM　寸法線、寸法値
 62
     0
370
    -2
100
AcDbLine
 10
201250.7760854933
 20
11113.61246295357
 30
0.0
 11
201250.7760854933
 21
11212.30234893513
 31
0.0
  0
LINE
  5
310C1
330
30F4B
100
AcDbEntity
  8
D-STR-DIM　寸法線、寸法値
 62
     0
370
    -2
100
AcDbLine
 10
201650.7760854933
 20
11111.11246295354
 30
0.0
 11
201650.7760854933
 21
11212.30234893513
 31
0.0
  0
LINE
  5
310C2
330
30F4B
100
AcDbEntity
  8
D-STR-DIM　寸法線、寸法値
 62
     0
370
    -2
100
AcDbLine
 10
201250.7760854933
 20
11194.30234893513
 30
0.0
 11
201650.7760854933
 21
11194.30234893513
 31
0.0
  0
INSERT
  5
310C3
330
30F4B
100
AcDbEntity
  8
D-STR-DIM　寸法線、寸法値
 62
     0
370
    -2
100
AcDbBlockReference
  2
_DotSmall
 10
201250.7760854933
 20
11194.30234893513
 30
0.0
 41
45.0
 42
45.0
 43
45.0
 50
180.0
  0
INSERT
  5
310C4
330
30F4B
100
AcDbEntity
  8
D-STR-DIM　寸法線、寸法値
 62
     0
370
    -2
100
AcDbBlockReference
  2
_DotSmall
 10
201650.7760854933
 20
11194.30234893513
 30
0.0
 41
45.0
 42
45.0
 43
45.0
  0
MTEXT
  5
310C5
330
30F4B
100
AcDbEntity
  8
D-STR-DIM　寸法線、寸法値
 62
     0
100
AcDbMText
 10
201450.7760854933
 20
11226.36874893513
 30
0.0
 40
37.5
 41
0.0
 71
     5
 72
     1
  1
\A1;400
  7
YOKO_GOTHIC
 73
     1
 44
1.0
1001
ACAD
1000
MTEXTBEGIN
1070
    73
1070
     1
1070
    44
1040
1.0
1070
    74
1070
     0
1000
MTEXTEND
  0
POINT
  5
310C6
330
30F4B
100
AcDbEntity
  8
Defpoints
 62
     0
100
AcDbPoint
 10
201250.7760854933
 20
11089.61246295357
 30
0.0
  0
POINT
  5
310C7
330
30F4B
100
AcDbEntity
  8
Defpoints
 62
     0
100
AcDbPoint
 10
201650.7760854933
 20
11087.11246295355
 30
0.0
  0
POINT
  5
310C8
330
30F4B
100
AcDbEntity
  8
Defpoints
 62
     0
100
AcDbPoint
 10
201650.7760854933
 20
11194.30234893513
 30
0.0
  0
ENDBLK
  5
30F56
330
30F4B
100
AcDbEntity
  8
0
100
AcDbBlockEnd
  0
BLOCK
  5
30F61
330
30F57
100
AcDbEntity
  8
0
100
AcDbBlockBegin
  2
*D28
 70
     1
 10
0.0
 20
0.0
 30
0.0
  3
*D28
  1

  0
LINE
  5
310C9
330
30F57
100
AcDbEntity
  8
D-STR-DIM　寸法線、寸法値
 62
     0
370
    -2
100
AcDbLine
 10
201236.7760854933
 20
11102.11246295357
 30
0.0
 11
201139.6853691397
 21
11102.11246295357
 31
0.0
  0
LINE
  5
310CA
330
30F57
100
AcDbEntity
  8
D-STR-DIM　寸法線、寸法値
 62
     0
370
    -2
100
AcDbLine
 10
201234.2760854934
 20
10952.11246295358
 30
0.0
 11
201139.6853691397
 21
10952.11246295358
 31
0.0
  0
LINE
  5
310CB
330
30F57
100
AcDbEntity
  8
D-STR-DIM　寸法線、寸法値
 62
     0
370
    -2
100
AcDbLine
 10
201157.6853691398
 20
11102.11246295357
 30
0.0
 11
201157.6853691398
 21
10952.11246295358
 31
0.0
  0
INSERT
  5
310CC
330
30F57
100
AcDbEntity
  8
D-STR-DIM　寸法線、寸法値
 62
     0
370
    -2
100
AcDbBlockReference
  2
_DotSmall
 10
201157.6853691398
 20
11102.11246295357
 30
0.0
 41
45.0
 42
45.0
 43
45.0
 50
90.0
  0
INSERT
  5
310CD
330
30F57
100
AcDbEntity
  8
D-STR-DIM　寸法線、寸法値
 62
     0
370
    -2
100
AcDbBlockReference
  2
_DotSmall
 10
201157.6853691398
 20
10952.11246295358
 30
0.0
 41
45.0
 42
45.0
 43
45.0
 50
270.0
  0
MTEXT
  5
310CE
330
30F57
100
AcDbEntity
  8
D-STR-DIM　寸法線、寸法値
 62
     0
100
AcDbMText
 10
201125.6189691398
 20
11027.11246295361
 30
0.0
 40
37.5
 41
0.0
 71
     5
 72
     1
  1
\A1;150
  7
YOKO_GOTHIC
 11
0.0000000000000001
 21
1.0
 31
0.0
 73
     1
 44
1.0
1001
ACAD
1000
MTEXTBEGIN
1070
    73
1070
     1
1070
    44
1040
1.0
1070
    74
1070
     0
1000
MTEXTEND
  0
POINT
  5
310CF
330
30F57
100
AcDbEntity
  8
Defpoints
 62
     0
100
AcDbPoint
 10
201260.7760854933
 20
11102.11246295357
 30
0.0
  0
POINT
  5
310D0
330
30F57
100
AcDbEntity
  8
Defpoints
 62
     0
100
AcDbPoint
 10
201258.2760854933
 20
10952.11246295358
 30
0.0
  0
POINT
  5
310D1
330
30F57
100
AcDbEntity
  8
Defpoints
 62
     0
100
AcDbPoint
 10
201157.6853691398
 20
10952.11246295358
 30
0.0
  0
ENDBLK
  5
30F62
330
30F57
100
AcDbEntity
  8
0
100
AcDbBlockEnd
  0
BLOCK
  5
30F6D
330
30F63
100
AcDbEntity
  8
0
100
AcDbBlockBegin
  2
*D29
 70
     1
 10
0.0
 20
0.0
 30
0.0
  3
*D29
  1

  0
LINE
  5
310D2
330
30F63
100
AcDbEntity
  8
D-STR-DIM　寸法線、寸法値
 62
     0
370
    -2
100
AcDbLine
 10
201234.2760854934
 20
10952.11246295358
 30
0.0
 11
201139.6853691397
 21
10952.11246295358
 31
0.0
  0
LINE
  5
310D3
330
30F63
100
AcDbEntity
  8
D-STR-DIM　寸法線、寸法値
 62
     0
370
    -2
100
AcDbLine
 10
201396.5260854932
 20
10552.11246295358
 30
0.0
 11
201139.6853691397
 21
10552.11246295358
 31
0.0
  0
LINE
  5
310D4
330
30F63
100
AcDbEntity
  8
D-STR-DIM　寸法線、寸法値
 62
     0
370
    -2
100
AcDbLine
 10
201157.6853691398
 20
10952.11246295358
 30
0.0
 11
201157.6853691398
 21
10552.11246295358
 31
0.0
  0
INSERT
  5
310D5
330
30F63
100
AcDbEntity
  8
D-STR-DIM　寸法線、寸法値
 62
     0
370
    -2
100
AcDbBlockReference
  2
_DotSmall
 10
201157.6853691398
 20
10952.11246295358
 30
0.0
 41
45.0
 42
45.0
 43
45.0
 50
90.0
  0
INSERT
  5
310D6
330
30F63
100
AcDbEntity
  8
D-STR-DIM　寸法線、寸法値
 62
     0
370
    -2
100
AcDbBlockReference
  2
_DotSmall
 10
201157.6853691398
 20
10552.11246295358
 30
0.0
 41
45.0
 42
45.0
 43
45.0
 50
270.0
  0
MTEXT
  5
310D7
330
30F63
100
AcDbEntity
  8
D-STR-DIM　寸法線、寸法値
 62
     0
100
AcDbMText
 10
201125.6189691398
 20
10752.11246295361
 30
0.0
 40
37.5
 41
0.0
 71
     5
 72
     1
  1
\A1;400
  7
YOKO_GOTHIC
 11
0.0000000000000001
 21
1.0
 31
0.0
 73
     1
 44
1.0
1001
ACAD
1000
MTEXTBEGIN
1070
    73
1070
     1
1070
    44
1040
1.0
1070
    74
1070
     0
1000
MTEXTEND
  0
POINT
  5
310D8
330
30F63
100
AcDbEntity
  8
Defpoints
 62
     0
100
AcDbPoint
 10
201258.2760854933
 20
10952.11246295358
 30
0.0
  0
POINT
  5
310D9
330
30F63
100
AcDbEntity
  8
Defpoints
 62
     0
100
AcDbPoint
 10
201420.5260854933
 20
10552.11246295358
 30
0.0
  0
POINT
  5
310DA
330
30F63
100
AcDbEntity
  8
Defpoints
 62
     0
100
AcDbPoint
 10
201157.6853691398
 20
10552.11246295358
 30
0.0
  0
ENDBLK
  5
30F6E
330
30F63
100
AcDbEntity
  8
0
100
AcDbBlockEnd
  0
BLOCK
  5
30F79
330
30F6F
100
AcDbEntity
  8
0
100
AcDbBlockBegin
  2
*D30
 70
     1
 10
0.0
 20
0.0
 30
0.0
  3
*D30
  1

  0
LINE
  5
310DB
330
30F6F
100
AcDbEntity
  8
D-STR-DIM　寸法線、寸法値
 62
     0
370
    -2
100
AcDbLine
 10
201396.5260854932
 20
10552.11246295358
 30
0.0
 11
201139.6853691397
 21
10552.11246295358
 31
0.0
  0
LINE
  5
310DC
330
30F6F
100
AcDbEntity
  8
D-STR-DIM　寸法線、寸法値
 62
     0
370
    -2
100
AcDbLine
 10
201276.7760854933
 20
10452.11246295357
 30
0.0
 11
201139.6853691397
 21
10452.11246295357
 31
0.0
  0
LINE
  5
310DD
330
30F6F
100
AcDbEntity
  8
D-STR-DIM　寸法線、寸法値
 62
     0
370
    -2
100
AcDbLine
 10
201157.6853691398
 20
10552.11246295358
 30
0.0
 11
201157.6853691398
 21
10452.11246295357
 31
0.0
  0
INSERT
  5
310DE
330
30F6F
100
AcDbEntity
  8
D-STR-DIM　寸法線、寸法値
 62
     0
370
    -2
100
AcDbBlockReference
  2
_DotSmall
 10
201157.6853691398
 20
10552.11246295358
 30
0.0
 41
45.0
 42
45.0
 43
45.0
 50
90.0
  0
INSERT
  5
310DF
330
30F6F
100
AcDbEntity
  8
D-STR-DIM　寸法線、寸法値
 62
     0
370
    -2
100
AcDbBlockReference
  2
_DotSmall
 10
201157.6853691398
 20
10452.11246295357
 30
0.0
 41
45.0
 42
45.0
 43
45.0
 50
270.0
  0
MTEXT
  5
310E0
330
30F6F
100
AcDbEntity
  8
D-STR-DIM　寸法線、寸法値
 62
     0
100
AcDbMText
 10
201125.6189691398
 20
10502.11246295361
 30
0.0
 40
37.5
 41
0.0
 71
     5
 72
     1
  1
\A1;100
  7
YOKO_GOTHIC
 11
0.0000000000000001
 21
1.0
 31
0.0
 73
     1
 44
1.0
1001
ACAD
1000
MTEXTBEGIN
1070
    73
1070
     1
1070
    44
1040
1.0
1070
    74
1070
     0
1000
MTEXTEND
  0
POINT
  5
310E1
330
30F6F
100
AcDbEntity
  8
Defpoints
 62
     0
100
AcDbPoint
 10
201420.5260854933
 20
10552.11246295358
 30
0.0
  0
POINT
  5
310E2
330
30F6F
100
AcDbEntity
  8
Defpoints
 62
     0
100
AcDbPoint
 10
201300.7760854933
 20
10452.11246295357
 30
0.0
  0
POINT
  5
310E3
330
30F6F
100
AcDbEntity
  8
Defpoints
 62
     0
100
AcDbPoint
 10
201157.6853691398
 20
10452.11246295357
 30
0.0
  0
ENDBLK
  5
30F7A
330
30F6F
100
AcDbEntity
  8
0
100
AcDbBlockEnd
  0
BLOCK
  5
30F85
330
30F7B
100
AcDbEntity
  8
0
100
AcDbBlockBegin
  2
*D31
 70
     1
 10
0.0
 20
0.0
 30
0.0
  3
*D31
  1

  0
LINE
  5
310E4
330
30F7B
100
AcDbEntity
  8
D-STR-DIM　寸法線、寸法値
 62
     0
370
    -2
100
AcDbLine
 10
201276.7760854933
 20
10452.11246295357
 30
0.0
 11
201139.6853691397
 21
10452.11246295357
 31
0.0
  0
LINE
  5
310E5
330
30F7B
100
AcDbEntity
  8
D-STR-DIM　寸法線、寸法値
 62
     0
370
    -2
100
AcDbLine
 10
201226.7760854933
 20
10152.11246295357
 30
0.0
 11
201139.6853691397
 21
10152.11246295357
 31
0.0
  0
LINE
  5
310E6
330
30F7B
100
AcDbEntity
  8
D-STR-DIM　寸法線、寸法値
 62
     0
370
    -2
100
AcDbLine
 10
201157.6853691398
 20
10452.11246295357
 30
0.0
 11
201157.6853691398
 21
10152.11246295357
 31
0.0
  0
INSERT
  5
310E7
330
30F7B
100
AcDbEntity
  8
D-STR-DIM　寸法線、寸法値
 62
     0
370
    -2
100
AcDbBlockReference
  2
_DotSmall
 10
201157.6853691398
 20
10452.11246295357
 30
0.0
 41
45.0
 42
45.0
 43
45.0
 50
90.0
  0
INSERT
  5
310E8
330
30F7B
100
AcDbEntity
  8
D-STR-DIM　寸法線、寸法値
 62
     0
370
    -2
100
AcDbBlockReference
  2
_DotSmall
 10
201157.6853691398
 20
10152.11246295357
 30
0.0
 41
45.0
 42
45.0
 43
45.0
 50
270.0
  0
MTEXT
  5
310E9
330
30F7B
100
AcDbEntity
  8
D-STR-DIM　寸法線、寸法値
 62
     0
100
AcDbMText
 10
201125.6189691398
 20
10302.11246295361
 30
0.0
 40
37.5
 41
0.0
 71
     5
 72
     1
  1
\A1;300
  7
YOKO_GOTHIC
 11
0.0000000000000001
 21
1.0
 31
0.0
 73
     1
 44
1.0
1001
ACAD
1000
MTEXTBEGIN
1070
    73
1070
     1
1070
    44
1040
1.0
1070
    74
1070
     0
1000
MTEXTEND
  0
POINT
  5
310EA
330
30F7B
100
AcDbEntity
  8
Defpoints
 62
     0
100
AcDbPoint
 10
201300.7760854933
 20
10452.11246295357
 30
0.0
  0
POINT
  5
310EB
330
30F7B
100
AcDbEntity
  8
Defpoints
 62
     0
100
AcDbPoint
 10
201250.7760854933
 20
10152.11246295357
 30
0.0
  0
POINT
  5
310EC
330
30F7B
100
AcDbEntity
  8
Defpoints
 62
     0
100
AcDbPoint
 10
201157.6853691398
 20
10152.11246295357
 30
0.0
  0
ENDBLK
  5
30F86
330
30F7B
100
AcDbEntity
  8
0
100
AcDbBlockEnd
  0
BLOCK
  5
30F91
330
30F87
100
AcDbEntity
  8
0
100
AcDbBlockBegin
  2
*D32
 70
     1
 10
0.0
 20
0.0
 30
0.0
  3
*D32
  1

  0
LINE
  5
310ED
330
30F87
100
AcDbEntity
  8
D-STR-DIM　寸法線、寸法値
 62
     0
370
    -2
100
AcDbLine
 10
201226.7760854933
 20
10152.11246295357
 30
0.0
 11
201139.6853691397
 21
10152.11246295357
 31
0.0
  0
LINE
  5
310EE
330
30F87
100
AcDbEntity
  8
D-STR-DIM　寸法線、寸法値
 62
     0
370
    -2
100
AcDbLine
 10
201226.7760854933
 20
10052.11246295357
 30
0.0
 11
201139.6853691397
 21
10052.11246295357
 31
0.0
  0
LINE
  5
310EF
330
30F87
100
AcDbEntity
  8
D-STR-DIM　寸法線、寸法値
 62
     0
370
    -2
100
AcDbLine
 10
201157.6853691398
 20
10152.11246295357
 30
0.0
 11
201157.6853691398
 21
10052.11246295357
 31
0.0
  0
INSERT
  5
310F0
330
30F87
100
AcDbEntity
  8
D-STR-DIM　寸法線、寸法値
 62
     0
370
    -2
100
AcDbBlockReference
  2
_DotSmall
 10
201157.6853691398
 20
10152.11246295357
 30
0.0
 41
45.0
 42
45.0
 43
45.0
 50
90.0
  0
INSERT
  5
310F1
330
30F87
100
AcDbEntity
  8
D-STR-DIM　寸法線、寸法値
 62
     0
370
    -2
100
AcDbBlockReference
  2
_DotSmall
 10
201157.6853691398
 20
10052.11246295357
 30
0.0
 41
45.0
 42
45.0
 43
45.0
 50
270.0
  0
MTEXT
  5
310F2
330
30F87
100
AcDbEntity
  8
D-STR-DIM　寸法線、寸法値
 62
     0
100
AcDbMText
 10
201125.6189691398
 20
10102.11246295361
 30
0.0
 40
37.5
 41
0.0
 71
     5
 72
     1
  1
\A1;100
  7
YOKO_GOTHIC
 11
0.0000000000000001
 21
1.0
 31
0.0
 73
     1
 44
1.0
1001
ACAD
1000
MTEXTBEGIN
1070
    73
1070
     1
1070
    44
1040
1.0
1070
    74
1070
     0
1000
MTEXTEND
  0
POINT
  5
310F3
330
30F87
100
AcDbEntity
  8
Defpoints
 62
     0
100
AcDbPoint
 10
201250.7760854933
 20
10152.11246295357
 30
0.0
  0
POINT
  5
310F4
330
30F87
100
AcDbEntity
  8
Defpoints
 62
     0
100
AcDbPoint
 10
201250.7760854933
 20
10052.11246295357
 30
0.0
  0
POINT
  5
310F5
330
30F87
100
AcDbEntity
  8
Defpoints
 62
     0
100
AcDbPoint
 10
201157.6853691398
 20
10052.11246295357
 30
0.0
  0
ENDBLK
  5
30F92
330
30F87
100
AcDbEntity
  8
0
100
AcDbBlockEnd
  0
BLOCK
  5
30F9D
330
30F93
100
AcDbEntity
  8
0
100
AcDbBlockBegin
  2
*D33
 70
     1
 10
0.0
 20
0.0
 30
0.0
  3
*D33
  1

  0
LINE
  5
310F6
330
30F93
100
AcDbEntity
  8
D-STR-DIM　寸法線、寸法値
 62
     0
370
    -2
100
AcDbLine
 10
201236.7760854933
 20
11102.11246295357
 30
0.0
 11
201064.4785458305
 21
11102.11246295357
 31
0.0
  0
LINE
  5
310F7
330
30F93
100
AcDbEntity
  8
D-STR-DIM　寸法線、寸法値
 62
     0
370
    -2
100
AcDbLine
 10
201381.5260854933
 20
10552.11246295358
 30
0.0
 11
201064.4785458305
 21
10552.11246295358
 31
0.0
  0
LINE
  5
310F8
330
30F93
100
AcDbEntity
  8
D-STR-DIM　寸法線、寸法値
 62
     0
370
    -2
100
AcDbLine
 10
201082.4785458305
 20
11102.11246295357
 30
0.0
 11
201082.4785458305
 21
10552.11246295358
 31
0.0
  0
INSERT
  5
310F9
330
30F93
100
AcDbEntity
  8
D-STR-DIM　寸法線、寸法値
 62
     0
370
    -2
100
AcDbBlockReference
  2
_DotSmall
 10
201082.4785458305
 20
11102.11246295357
 30
0.0
 41
45.0
 42
45.0
 43
45.0
 50
90.0
  0
INSERT
  5
310FA
330
30F93
100
AcDbEntity
  8
D-STR-DIM　寸法線、寸法値
 62
     0
370
    -2
100
AcDbBlockReference
  2
_DotSmall
 10
201082.4785458305
 20
10552.11246295358
 30
0.0
 41
45.0
 42
45.0
 43
45.0
 50
270.0
  0
MTEXT
  5
310FB
330
30F93
100
AcDbEntity
  8
D-STR-DIM　寸法線、寸法値
 62
     0
100
AcDbMText
 10
201050.4121458305
 20
10827.11246295361
 30
0.0
 40
37.5
 41
0.0
 71
     5
 72
     1
  1
\A1;550
  7
YOKO_GOTHIC
 11
0.0000000000000001
 21
1.0
 31
0.0
 73
     1
 44
1.0
1001
ACAD
1000
MTEXTBEGIN
1070
    73
1070
     1
1070
    44
1040
1.0
1070
    74
1070
     0
1000
MTEXTEND
  0
POINT
  5
310FC
330
30F93
100
AcDbEntity
  8
Defpoints
 62
     0
100
AcDbPoint
 10
201260.7760854933
 20
11102.11246295357
 30
0.0
  0
POINT
  5
310FD
330
30F93
100
AcDbEntity
  8
Defpoints
 62
     0
100
AcDbPoint
 10
201405.5260854933
 20
10552.11246295358
 30
0.0
  0
POINT
  5
310FE
330
30F93
100
AcDbEntity
  8
Defpoints
 62
     0
100
AcDbPoint
 10
201082.4785458305
 20
10552.11246295358
 30
0.0
  0
ENDBLK
  5
30F9E
330
30F93
100
AcDbEntity
  8
0
100
AcDbBlockEnd
  0
BLOCK
  5
30FA9
330
30F9F
100
AcDbEntity
  8
0
100
AcDbBlockBegin
  2
*D34
 70
     1
 10
0.0
 20
0.0
 30
0.0
  3
*D34
  1

  0
LINE
  5
310FF
330
30F9F
100
AcDbEntity
  8
D-STR-DIM　寸法線、寸法値
 62
     0
370
    -2
100
AcDbLine
 10
201381.5260854933
 20
10552.11246295358
 30
0.0
 11
201064.4785458305
 21
10552.11246295358
 31
0.0
  0
LINE
  5
31100
330
30F9F
100
AcDbEntity
  8
D-STR-DIM　寸法線、寸法値
 62
     0
370
    -2
100
AcDbLine
 10
201226.7760854933
 20
10052.11246295357
 30
0.0
 11
201064.4785458305
 21
10052.11246295357
 31
0.0
  0
LINE
  5
31101
330
30F9F
100
AcDbEntity
  8
D-STR-DIM　寸法線、寸法値
 62
     0
370
    -2
100
AcDbLine
 10
201082.4785458305
 20
10552.11246295358
 30
0.0
 11
201082.4785458305
 21
10052.11246295357
 31
0.0
  0
INSERT
  5
31102
330
30F9F
100
AcDbEntity
  8
D-STR-DIM　寸法線、寸法値
 62
     0
370
    -2
100
AcDbBlockReference
  2
_DotSmall
 10
201082.4785458305
 20
10552.11246295358
 30
0.0
 41
45.0
 42
45.0
 43
45.0
 50
90.0
  0
INSERT
  5
31103
330
30F9F
100
AcDbEntity
  8
D-STR-DIM　寸法線、寸法値
 62
     0
370
    -2
100
AcDbBlockReference
  2
_DotSmall
 10
201082.4785458305
 20
10052.11246295357
 30
0.0
 41
45.0
 42
45.0
 43
45.0
 50
270.0
  0
MTEXT
  5
31104
330
30F9F
100
AcDbEntity
  8
D-STR-DIM　寸法線、寸法値
 62
     0
100
AcDbMText
 10
201050.4121458305
 20
10302.11246295361
 30
0.0
 40
37.5
 41
0.0
 71
     5
 72
     1
  1
\A1;500
  7
YOKO_GOTHIC
 11
0.0000000000000001
 21
1.0
 31
0.0
 73
     1
 44
1.0
1001
ACAD
1000
MTEXTBEGIN
1070
    73
1070
     1
1070
    44
1040
1.0
1070
    74
1070
     0
1000
MTEXTEND
  0
POINT
  5
31105
330
30F9F
100
AcDbEntity
  8
Defpoints
 62
     0
100
AcDbPoint
 10
201405.5260854933
 20
10552.11246295358
 30
0.0
  0
POINT
  5
31106
330
30F9F
100
AcDbEntity
  8
Defpoints
 62
     0
100
AcDbPoint
 10
201250.7760854933
 20
10052.11246295357
 30
0.0
  0
POINT
  5
31107
330
30F9F
100
AcDbEntity
  8
Defpoints
 62
     0
100
AcDbPoint
 10
201082.4785458305
 20
10052.11246295357
 30
0.0
  0
ENDBLK
  5
30FAA
330
30F9F
100
AcDbEntity
  8
0
100
AcDbBlockEnd
  0
BLOCK
  5
30FB5
330
30FAB
100
AcDbEntity
  8
0
100
AcDbBlockBegin
  2
*D35
 70
     1
 10
0.0
 20
0.0
 30
0.0
  3
*D35
  1

  0
LINE
  5
31108
330
30FAB
100
AcDbEntity
  8
D-STR-DIM　寸法線、寸法値
 62
     0
370
    -2
100
AcDbLine
 10
201300.7760854933
 20
10028.11246295358
 30
0.0
 11
201300.7760854933
 21
9946.383313834232
 31
0.0
  0
LINE
  5
31109
330
30FAB
100
AcDbEntity
  8
D-STR-DIM　寸法線、寸法値
 62
     0
370
    -2
100
AcDbLine
 10
201600.7760854933
 20
10028.11246295358
 30
0.0
 11
201600.7760854933
 21
9946.383313834232
 31
0.0
  0
LINE
  5
3110A
330
30FAB
100
AcDbEntity
  8
D-STR-DIM　寸法線、寸法値
 62
     0
370
    -2
100
AcDbLine
 10
201300.7760854933
 20
9964.383313834231
 30
0.0
 11
201600.7760854933
 21
9964.383313834231
 31
0.0
  0
INSERT
  5
3110B
330
30FAB
100
AcDbEntity
  8
D-STR-DIM　寸法線、寸法値
 62
     0
370
    -2
100
AcDbBlockReference
  2
_DotSmall
 10
201300.7760854933
 20
9964.383313834231
 30
0.0
 41
45.0
 42
45.0
 43
45.0
 50
180.0
  0
INSERT
  5
3110C
330
30FAB
100
AcDbEntity
  8
D-STR-DIM　寸法線、寸法値
 62
     0
370
    -2
100
AcDbBlockReference
  2
_DotSmall
 10
201600.7760854933
 20
9964.383313834231
 30
0.0
 41
45.0
 42
45.0
 43
45.0
  0
MTEXT
  5
3110D
330
30FAB
100
AcDbEntity
  8
D-STR-DIM　寸法線、寸法値
 62
     0
100
AcDbMText
 10
201450.7760854933
 20
9996.44971383423
 30
0.0
 40
37.5
 41
0.0
 71
     5
 72
     1
  1
\A1;300x300
  7
YOKO_GOTHIC
 73
     1
 44
1.0
1001
ACAD
1000
MTEXTBEGIN
1070
    73
1070
     1
1070
    44
1040
1.0
1070
    74
1070
     0
1000
MTEXTEND
  0
POINT
  5
3110E
330
30FAB
100
AcDbEntity
  8
Defpoints
 62
     0
100
AcDbPoint
 10
201300.7760854933
 20
10052.11246295357
 30
0.0
  0
POINT
  5
3110F
330
30FAB
100
AcDbEntity
  8
Defpoints
 62
     0
100
AcDbPoint
 10
201600.7760854933
 20
10052.11246295357
 30
0.0
  0
POINT
  5
31110
330
30FAB
100
AcDbEntity
  8
Defpoints
 62
     0
100
AcDbPoint
 10
201600.7760854933
 20
9964.383313834231
 30
0.0
  0
ENDBLK
  5
30FB6
330
30FAB
100
AcDbEntity
  8
0
100
AcDbBlockEnd
  0
BLOCK
  5
30FBF
330
30FB7
100
AcDbEntity
  8
0
100
AcDbBlockBegin
  2
*D36
 70
     1
 10
0.0
 20
0.0
 30
0.0
  3
*D36
  1

  0
LINE
  5
31111
330
30FB7
100
AcDbEntity
  8
D-STR-DIM　寸法線、寸法値
 62
     0
370
    -2
100
AcDbLine
 10
201250.7760854933
 20
10028.11246295358
 30
0.0
 11
201250.7760854933
 21
9946.383313834232
 31
0.0
  0
LINE
  5
31112
330
30FB7
100
AcDbEntity
  8
D-STR-DIM　寸法線、寸法値
 62
     0
370
    -2
100
AcDbLine
 10
201300.7760854933
 20
10028.11246295358
 30
0.0
 11
201300.7760854933
 21
9946.383313834232
 31
0.0
  0
LINE
  5
31113
330
30FB7
100
AcDbEntity
  8
D-STR-DIM　寸法線、寸法値
 62
     0
370
    -2
100
AcDbLine
 10
201250.7760854933
 20
9964.383313834231
 30
0.0
 11
201300.7760854933
 21
9964.383313834231
 31
0.0
  0
MTEXT
  5
31114
330
30FB7
100
AcDbEntity
  8
D-STR-DIM　寸法線、寸法値
 62
     0
100
AcDbMText
 10
201275.7760854933
 20
9996.44971383423
 30
0.0
 40
37.5
 41
0.0
 71
     5
 72
     1
  1
\A1;50
  7
YOKO_GOTHIC
 73
     1
 44
1.0
1001
ACAD
1000
MTEXTBEGIN
1070
    73
1070
     1
1070
    44
1040
1.0
1070
    74
1070
     0
1000
MTEXTEND
  0
POINT
  5
31115
330
30FB7
100
AcDbEntity
  8
Defpoints
 62
     0
100
AcDbPoint
 10
201250.7760854933
 20
10052.11246295357
 30
0.0
  0
POINT
  5
31116
330
30FB7
100
AcDbEntity
  8
Defpoints
 62
     0
100
AcDbPoint
 10
201300.7760854933
 20
10052.11246295357
 30
0.0
  0
POINT
  5
31117
330
30FB7
100
AcDbEntity
  8
Defpoints
 62
     0
100
AcDbPoint
 10
201300.7760854933
 20
9964.383313834231
 30
0.0
  0
ENDBLK
  5
30FC0
330
30FB7
100
AcDbEntity
  8
0
100
AcDbBlockEnd
  0
BLOCK
  5
30FC9
330
30FC1
100
AcDbEntity
  8
0
100
AcDbBlockBegin
  2
*D37
 70
     1
 10
0.0
 20
0.0
 30
0.0
  3
*D37
  1

  0
LINE
  5
31118
330
30FC1
100
AcDbEntity
  8
D-STR-DIM　寸法線、寸法値
 62
     0
370
    -2
100
AcDbLine
 10
201600.7760854933
 20
10028.11246295358
 30
0.0
 11
201600.7760854933
 21
9946.383313834232
 31
0.0
  0
LINE
  5
31119
330
30FC1
100
AcDbEntity
  8
D-STR-DIM　寸法線、寸法値
 62
     0
370
    -2
100
AcDbLine
 10
201650.7760854933
 20
10028.11246295358
 30
0.0
 11
201650.7760854933
 21
9946.383313834232
 31
0.0
  0
LINE
  5
3111A
330
30FC1
100
AcDbEntity
  8
D-STR-DIM　寸法線、寸法値
 62
     0
370
    -2
100
AcDbLine
 10
201600.7760854933
 20
9964.383313834231
 30
0.0
 11
201650.7760854933
 21
9964.383313834231
 31
0.0
  0
MTEXT
  5
3111B
330
30FC1
100
AcDbEntity
  8
D-STR-DIM　寸法線、寸法値
 62
     0
100
AcDbMText
 10
201625.7760854933
 20
9996.44971383423
 30
0.0
 40
37.5
 41
0.0
 71
     5
 72
     1
  1
\A1;50
  7
YOKO_GOTHIC
 73
     1
 44
1.0
1001
ACAD
1000
MTEXTBEGIN
1070
    73
1070
     1
1070
    44
1040
1.0
1070
    74
1070
     0
1000
MTEXTEND
  0
POINT
  5
3111C
330
30FC1
100
AcDbEntity
  8
Defpoints
 62
     0
100
AcDbPoint
 10
201600.7760854933
 20
10052.11246295357
 30
0.0
  0
POINT
  5
3111D
330
30FC1
100
AcDbEntity
  8
Defpoints
 62
     0
100
AcDbPoint
 10
201650.7760854933
 20
10052.11246295357
 30
0.0
  0
POINT
  5
3111E
330
30FC1
100
AcDbEntity
  8
Defpoints
 62
     0
100
AcDbPoint
 10
201650.7760854933
 20
9964.383313834231
 30
0.0
  0
ENDBLK
  5
30FCA
330
30FC1
100
AcDbEntity
  8
0
100
AcDbBlockEnd
  0
BLOCK
  5
30FD5
330
30FCB
100
AcDbEntity
  8
0
100
AcDbBlockBegin
  2
*D38
 70
     1
 10
0.0
 20
0.0
 30
0.0
  3
*D38
  1

  0
LINE
  5
3111F
330
30FCB
100
AcDbEntity
  8
D-STR-DIM　寸法線、寸法値
 62
     0
370
    -2
100
AcDbLine
 10
201250.7760854933
 20
10028.11246295358
 30
0.0
 11
201250.7760854933
 21
9884.149890546396
 31
0.0
  0
LINE
  5
31120
330
30FCB
100
AcDbEntity
  8
D-STR-DIM　寸法線、寸法値
 62
     0
370
    -2
100
AcDbLine
 10
201650.7760854933
 20
10028.11246295358
 30
0.0
 11
201650.7760854933
 21
9884.149890546396
 31
0.0
  0
LINE
  5
31121
330
30FCB
100
AcDbEntity
  8
D-STR-DIM　寸法線、寸法値
 62
     0
370
    -2
100
AcDbLine
 10
201250.7760854933
 20
9902.149890546397
 30
0.0
 11
201650.7760854933
 21
9902.149890546397
 31
0.0
  0
INSERT
  5
31122
330
30FCB
100
AcDbEntity
  8
D-STR-DIM　寸法線、寸法値
 62
     0
370
    -2
100
AcDbBlockReference
  2
_DotSmall
 10
201250.7760854933
 20
9902.149890546397
 30
0.0
 41
45.0
 42
45.0
 43
45.0
 50
180.0
  0
INSERT
  5
31123
330
30FCB
100
AcDbEntity
  8
D-STR-DIM　寸法線、寸法値
 62
     0
370
    -2
100
AcDbBlockReference
  2
_DotSmall
 10
201650.7760854933
 20
9902.149890546397
 30
0.0
 41
45.0
 42
45.0
 43
45.0
  0
MTEXT
  5
31124
330
30FCB
100
AcDbEntity
  8
D-STR-DIM　寸法線、寸法値
 62
     0
100
AcDbMText
 10
201450.7760854933
 20
9934.216290546396
 30
0.0
 40
37.5
 41
0.0
 71
     5
 72
     1
  1
\A1;400x400
  7
YOKO_GOTHIC
 73
     1
 44
1.0
1001
ACAD
1000
MTEXTBEGIN
1070
    73
1070
     1
1070
    44
1040
1.0
1070
    74
1070
     0
1000
MTEXTEND
  0
POINT
  5
31125
330
30FCB
100
AcDbEntity
  8
Defpoints
 62
     0
100
AcDbPoint
 10
201250.7760854933
 20
10052.11246295357
 30
0.0
  0
POINT
  5
31126
330
30FCB
100
AcDbEntity
  8
Defpoints
 62
     0
100
AcDbPoint
 10
201650.7760854933
 20
10052.11246295357
 30
0.0
  0
POINT
  5
31127
330
30FCB
100
AcDbEntity
  8
Defpoints
 62
     0
100
AcDbPoint
 10
201650.7760854933
 20
9902.149890546397
 30
0.0
  0
ENDBLK
  5
30FD6
330
30FCB
100
AcDbEntity
  8
0
100
AcDbBlockEnd
  0
BLOCK
  5
30FE1
330
30FD7
100
AcDbEntity
  8
0
100
AcDbBlockBegin
  2
*D39
 70
     1
 10
0.0
 20
0.0
 30
0.0
  3
*D39
  1

  0
LINE
  5
31128
330
30FD7
100
AcDbEntity
  8
D-STR-DIM　寸法線、寸法値
 62
     0
370
    -2
100
AcDbLine
 10
198449.5577231221
 20
10028.11246295358
 30
0.0
 11
198449.5577231221
 21
9946.383313834232
 31
0.0
  0
LINE
  5
31129
330
30FD7
100
AcDbEntity
  8
D-STR-DIM　寸法線、寸法値
 62
     0
370
    -2
100
AcDbLine
 10
198749.5577231221
 20
10028.11246295358
 30
0.0
 11
198749.5577231221
 21
9946.383313834232
 31
0.0
  0
LINE
  5
3112A
330
30FD7
100
AcDbEntity
  8
D-STR-DIM　寸法線、寸法値
 62
     0
370
    -2
100
AcDbLine
 10
198449.5577231221
 20
9964.383313834231
 30
0.0
 11
198749.5577231221
 21
9964.383313834231
 31
0.0
  0
INSERT
  5
3112B
330
30FD7
100
AcDbEntity
  8
D-STR-DIM　寸法線、寸法値
 62
     0
370
    -2
100
AcDbBlockReference
  2
_DotSmall
 10
198449.5577231221
 20
9964.383313834231
 30
0.0
 41
45.0
 42
45.0
 43
45.0
 50
180.0
  0
INSERT
  5
3112C
330
30FD7
100
AcDbEntity
  8
D-STR-DIM　寸法線、寸法値
 62
     0
370
    -2
100
AcDbBlockReference
  2
_DotSmall
 10
198749.5577231221
 20
9964.383313834231
 30
0.0
 41
45.0
 42
45.0
 43
45.0
  0
MTEXT
  5
3112D
330
30FD7
100
AcDbEntity
  8
D-STR-DIM　寸法線、寸法値
 62
     0
100
AcDbMText
 10
198599.5577231221
 20
9996.44971383423
 30
0.0
 40
37.5
 41
0.0
 71
     5
 72
     1
  1
\A1;300x300
  7
YOKO_GOTHIC
 73
     1
 44
1.0
1001
ACAD
1000
MTEXTBEGIN
1070
    73
1070
     1
1070
    44
1040
1.0
1070
    74
1070
     0
1000
MTEXTEND
  0
POINT
  5
3112E
330
30FD7
100
AcDbEntity
  8
Defpoints
 62
     0
100
AcDbPoint
 10
198449.5577231221
 20
10052.11246295357
 30
0.0
  0
POINT
  5
3112F
330
30FD7
100
AcDbEntity
  8
Defpoints
 62
     0
100
AcDbPoint
 10
198749.5577231221
 20
10052.11246295357
 30
0.0
  0
POINT
  5
31130
330
30FD7
100
AcDbEntity
  8
Defpoints
 62
     0
100
AcDbPoint
 10
198749.5577231221
 20
9964.383313834231
 30
0.0
  0
ENDBLK
  5
30FE2
330
30FD7
100
AcDbEntity
  8
0
100
AcDbBlockEnd
  0
BLOCK
  5
30FEB
330
30FE3
100
AcDbEntity
  8
0
100
AcDbBlockBegin
  2
*D40
 70
     1
 10
0.0
 20
0.0
 30
0.0
  3
*D40
  1

  0
LINE
  5
31131
330
30FE3
100
AcDbEntity
  8
D-STR-DIM　寸法線、寸法値
 62
     0
370
    -2
100
AcDbLine
 10
198399.5577231221
 20
10028.11246295358
 30
0.0
 11
198399.5577231221
 21
9946.383313834232
 31
0.0
  0
LINE
  5
31132
330
30FE3
100
AcDbEntity
  8
D-STR-DIM　寸法線、寸法値
 62
     0
370
    -2
100
AcDbLine
 10
198449.5577231221
 20
10028.11246295358
 30
0.0
 11
198449.5577231221
 21
9946.383313834232
 31
0.0
  0
LINE
  5
31133
330
30FE3
100
AcDbEntity
  8
D-STR-DIM　寸法線、寸法値
 62
     0
370
    -2
100
AcDbLine
 10
198399.5577231221
 20
9964.383313834231
 30
0.0
 11
198449.5577231221
 21
9964.383313834231
 31
0.0
  0
MTEXT
  5
31134
330
30FE3
100
AcDbEntity
  8
D-STR-DIM　寸法線、寸法値
 62
     0
100
AcDbMText
 10
198424.5577231221
 20
9996.44971383423
 30
0.0
 40
37.5
 41
0.0
 71
     5
 72
     1
  1
\A1;50
  7
YOKO_GOTHIC
 73
     1
 44
1.0
1001
ACAD
1000
MTEXTBEGIN
1070
    73
1070
     1
1070
    44
1040
1.0
1070
    74
1070
     0
1000
MTEXTEND
  0
POINT
  5
31135
330
30FE3
100
AcDbEntity
  8
Defpoints
 62
     0
100
AcDbPoint
 10
198399.5577231221
 20
10052.11246295357
 30
0.0
  0
POINT
  5
31136
330
30FE3
100
AcDbEntity
  8
Defpoints
 62
     0
100
AcDbPoint
 10
198449.5577231221
 20
10052.11246295357
 30
0.0
  0
POINT
  5
31137
330
30FE3
100
AcDbEntity
  8
Defpoints
 62
     0
100
AcDbPoint
 10
198449.5577231221
 20
9964.383313834231
 30
0.0
  0
ENDBLK
  5
30FEC
330
30FE3
100
AcDbEntity
  8
0
100
AcDbBlockEnd
  0
BLOCK
  5
30FF5
330
30FED
100
AcDbEntity
  8
0
100
AcDbBlockBegin
  2
*D41
 70
     1
 10
0.0
 20
0.0
 30
0.0
  3
*D41
  1

  0
LINE
  5
31138
330
30FED
100
AcDbEntity
  8
D-STR-DIM　寸法線、寸法値
 62
     0
370
    -2
100
AcDbLine
 10
198749.5577231221
 20
10028.11246295358
 30
0.0
 11
198749.5577231221
 21
9946.383313834232
 31
0.0
  0
LINE
  5
31139
330
30FED
100
AcDbEntity
  8
D-STR-DIM　寸法線、寸法値
 62
     0
370
    -2
100
AcDbLine
 10
198799.5577231221
 20
10028.11246295358
 30
0.0
 11
198799.5577231221
 21
9946.383313834232
 31
0.0
  0
LINE
  5
3113A
330
30FED
100
AcDbEntity
  8
D-STR-DIM　寸法線、寸法値
 62
     0
370
    -2
100
AcDbLine
 10
198749.5577231221
 20
9964.383313834231
 30
0.0
 11
198799.5577231221
 21
9964.383313834231
 31
0.0
  0
MTEXT
  5
3113B
330
30FED
100
AcDbEntity
  8
D-STR-DIM　寸法線、寸法値
 62
     0
100
AcDbMText
 10
198774.5577231221
 20
9996.44971383423
 30
0.0
 40
37.5
 41
0.0
 71
     5
 72
     1
  1
\A1;50
  7
YOKO_GOTHIC
 73
     1
 44
1.0
1001
ACAD
1000
MTEXTBEGIN
1070
    73
1070
     1
1070
    44
1040
1.0
1070
    74
1070
     0
1000
MTEXTEND
  0
POINT
  5
3113C
330
30FED
100
AcDbEntity
  8
Defpoints
 62
     0
100
AcDbPoint
 10
198749.5577231221
 20
10052.11246295357
 30
0.0
  0
POINT
  5
3113D
330
30FED
100
AcDbEntity
  8
Defpoints
 62
     0
100
AcDbPoint
 10
198799.5577231221
 20
10052.11246295357
 30
0.0
  0
POINT
  5
3113E
330
30FED
100
AcDbEntity
  8
Defpoints
 62
     0
100
AcDbPoint
 10
198799.5577231221
 20
9964.383313834231
 30
0.0
  0
ENDBLK
  5
30FF6
330
30FED
100
AcDbEntity
  8
0
100
AcDbBlockEnd
  0
BLOCK
  5
31001
330
30FF7
100
AcDbEntity
  8
0
100
AcDbBlockBegin
  2
*D42
 70
     1
 10
0.0
 20
0.0
 30
0.0
  3
*D42
  1

  0
LINE
  5
3113F
330
30FF7
100
AcDbEntity
  8
D-STR-DIM　寸法線、寸法値
 62
     0
370
    -2
100
AcDbLine
 10
198399.5577231221
 20
10028.11246295358
 30
0.0
 11
198399.5577231221
 21
9866.149890546395
 31
0.0
  0
LINE
  5
31140
330
30FF7
100
AcDbEntity
  8
D-STR-DIM　寸法線、寸法値
 62
     0
370
    -2
100
AcDbLine
 10
198799.5577231221
 20
10028.11246295358
 30
0.0
 11
198799.5577231221
 21
9866.149890546395
 31
0.0
  0
LINE
  5
31141
330
30FF7
100
AcDbEntity
  8
D-STR-DIM　寸法線、寸法値
 62
     0
370
    -2
100
AcDbLine
 10
198399.5577231221
 20
9884.149890546396
 30
0.0
 11
198799.5577231221
 21
9884.149890546396
 31
0.0
  0
INSERT
  5
31142
330
30FF7
100
AcDbEntity
  8
D-STR-DIM　寸法線、寸法値
 62
     0
370
    -2
100
AcDbBlockReference
  2
_DotSmall
 10
198399.5577231221
 20
9884.149890546396
 30
0.0
 41
45.0
 42
45.0
 43
45.0
 50
180.0
  0
INSERT
  5
31143
330
30FF7
100
AcDbEntity
  8
D-STR-DIM　寸法線、寸法値
 62
     0
370
    -2
100
AcDbBlockReference
  2
_DotSmall
 10
198799.5577231221
 20
9884.149890546396
 30
0.0
 41
45.0
 42
45.0
 43
45.0
  0
MTEXT
  5
31144
330
30FF7
100
AcDbEntity
  8
D-STR-DIM　寸法線、寸法値
 62
     0
100
AcDbMText
 10
198599.5577231221
 20
9916.216290546396
 30
0.0
 40
37.5
 41
0.0
 71
     5
 72
     1
  1
\A1;400x400
  7
YOKO_GOTHIC
 73
     1
 44
1.0
1001
ACAD
1000
MTEXTBEGIN
1070
    73
1070
     1
1070
    44
1040
1.0
1070
    74
1070
     0
1000
MTEXTEND
  0
POINT
  5
31145
330
30FF7
100
AcDbEntity
  8
Defpoints
 62
     0
100
AcDbPoint
 10
198399.5577231221
 20
10052.11246295357
 30
0.0
  0
POINT
  5
31146
330
30FF7
100
AcDbEntity
  8
Defpoints
 62
     0
100
AcDbPoint
 10
198799.5577231221
 20
10052.11246295357
 30
0.0
  0
POINT
  5
31147
330
30FF7
100
AcDbEntity
  8
Defpoints
 62
     0
100
AcDbPoint
 10
198799.5577231221
 20
9884.149890546396
 30
0.0
  0
ENDBLK
  5
31002
330
30FF7
100
AcDbEntity
  8
0
100
AcDbBlockEnd
  0
ENDSEC
  0
SECTION
  2
ENTITIES
  0
INSERT
  5
266CC
330
A
100
AcDbEntity
  8
D-TTL　外枠
100
AcDbBlockReference
 66
     1
  2
A$C0B7D5268
 10
197558.6857812543
 20
8898.085506566932
 30
0.0
 41
1.5
 42
1.5
 43
1.5
  0
ATTRIB
  5
266CD
330
266CC
100
AcDbEntity
  8
D-TTL-TXT　文字列
 48
0.5
100
AcDbText
 10
201761.5975179184
 20
9384.500141786896
 30
0.0
 40
52.5
  1
-
 41
0.8
  7
YOKO_GOTHIC
 72
     1
 11
201775.2421879691
 21
9374.906233157453
 31
0.0
100
AcDbAttribute
  2
PROJECT1
 70
     0
 74
     1
  0
ATTRIB
  5
266CE
330
266CC
100
AcDbEntity
  8
D-TTL-TXT　文字列
 48
0.5
100
AcDbText
 10
201393.1914265478
 20
9242.360622404161
 30
0.0
 40
52.5
  1
平ベンチ 合成木材 (KMB-E-01)
 41
0.8
  7
YOKO_GOTHIC
 72
     1
 11
201775.2421879691
 21
9232.76671377472
 31
0.0
100
AcDbAttribute
  2
PROJECT2
 70
     0
 74
     1
  0
ATTRIB
  5
266CF
330
266CC
100
AcDbEntity
  8
D-TTL-TXT　文字列
 48
0.5
100
AcDbText
 10
202925.6214662733
 20
9414.973790283042
 30
0.0
 40
52.5
  1
2011／05／06
 41
0.8
  7
YOKO_GOTHIC
 72
     1
 11
203089.3575068824
 21
9405.379881653599
 31
0.0
100
AcDbAttribute
  2
DATE
 70
     0
 74
     1
  0
ATTRIB
  5
266D0
330
266CC
100
AcDbEntity
  8
D-TTL-TXT　文字列
 48
0.5
100
AcDbText
 10
202323.7748302616
 20
9275.44599094296
 30
0.0
 40
52.5
  1
図示
 41
0.8
  7
YOKO_GOTHIC
 72
     1
 11
202378.3535104647
 21
9265.85208231352
 31
0.0
100
AcDbAttribute
  2
SCALE
 70
     0
 74
     1
  0
ATTRIB
  5
266D1
330
266CC
100
AcDbEntity
  8
D-TTL-TXT　文字列
 48
0.5
100
AcDbText
 10
203462.9659807611
 20
9292.701261763944
 30
0.0
 40
52.5
  1
.
 41
0.8
  7
YOKO_GOTHIC
 72
     1
 11
203476.6106508119
 21
9283.107353134502
 31
0.0
100
AcDbAttribute
  2
DWGNO
 70
     0
 74
     1
  0
ATTRIB
  5
266D2
330
266CC
100
AcDbEntity
  8
D-TTL-TXT　文字列
 48
0.5
100
AcDbText
 10
202562.7465034193
 20
9228.75522143512
 30
0.0
 40
52.5
  1
上屋敷
 41
0.8
  7
YOKO_GOTHIC
 72
     1
 11
202644.6145237239
 21
9219.161312805679
 31
0.0
100
AcDbAttribute
  2
DRAWN
 70
     0
 74
     1
  0
ATTRIB
  5
266D3
330
266CC
100
AcDbEntity
  8
D-TTL-TXT　文字列
 48
0.5
100
AcDbText
 10
202859.9456932121
 20
9228.75522143512
 30
0.0
 40
52.5
  1
上屋敷
 41
0.8
  7
YOKO_GOTHIC
 72
     1
 11
202941.8137135166
 21
9219.161312805679
 31
0.0
100
AcDbAttribute
  2
CHECKED
 70
     8
 74
     1
  0
ATTRIB
  5
266D4
330
266CC
100
AcDbEntity
  8
D-TTL-TXT　文字列
 48
0.5
100
AcDbText
 10
203162.965575275
 20
9228.75522143512
 30
0.0
 40
52.5
  1
新　谷
 41
0.8
  7
YOKO_GOTHIC
 72
     1
 11
203244.8335955796
 21
9219.161312805679
 31
0.0
100
AcDbAttribute
  2
APPROVED
 70
     8
 74
     1
  0
SEQEND
  5
266D5
330
266CC
100
AcDbEntity
  8
D-TTL　外枠
  0
LWPOLYLINE
  5
30BD4
330
A
100
AcDbEntity
  8
D-STR　構造物外形線
100
AcDbPolyline
 90
        4
 70
     0
 43
0.0
 10
198902.9433448445
 20
12520.09353227235
 10
198399.5577231221
 20
12520.09353227235
 10
198399.5577231221
 20
12425.09353227235
 10
198899.5577231221
 20
12425.09353227235
  0
LWPOLYLINE
  5
30BD5
330
A
100
AcDbEntity
  8
D-STR　構造物外形線
100
AcDbPolyline
 90
        2
 70
     0
 43
0.0
 10
198999.5577231221
 20
12425.09353227235
 10
199599.5577231221
 20
12425.09353227235
  0
LWPOLYLINE
  5
30BD6
330
A
100
AcDbEntity
  8
D-STR　構造物外形線
100
AcDbPolyline
 90
        4
 70
     0
 43
0.0
 10
199699.5577231221
 20
12425.09353227235
 10
200199.5577231221
 20
12425.09353227235
 10
200199.5577231221
 20
12520.09353227235
 10
199696.1721013998
 20
12520.09353227235
  0
LWPOLYLINE
  5
30BD7
330
A
100
AcDbEntity
  8
D-STR　構造物外形線
100
AcDbPolyline
 90
        2
 70
     0
 43
0.0
 10
199602.9433448444
 20
12520.09353227235
 10
198996.1721013998
 20
12520.09353227235
  0
LWPOLYLINE
  5
30BD8
330
A
100
AcDbEntity
  8
D-STR　構造物外形線
100
AcDbPolyline
 90
        4
 70
     0
 43
0.0
 10
198899.5577231221
 20
12420.09353227235
 10
198399.5577231221
 20
12420.09353227235
 10
198399.5577231221
 20
12325.09353227235
 10
198899.5577231221
 20
12325.09353227235
  0
LWPOLYLINE
  5
30BD9
330
A
100
AcDbEntity
  8
D-STR　構造物外形線
100
AcDbPolyline
 90
        2
 70
     0
 43
0.0
 10
198999.5577231221
 20
12325.09353227235
 10
199599.5577231221
 20
12325.09353227235
  0
LWPOLYLINE
  5
30BDA
330
A
100
AcDbEntity
  8
D-STR　構造物外形線
100
AcDbPolyline
 90
        4
 70
     0
 43
0.0
 10
199699.5577231221
 20
12325.09353227235
 10
200199.5577231221
 20
12325.09353227235
 10
200199.5577231221
 20
12420.09353227235
 10
199699.5577231221
 20
12420.09353227235
  0
LWPOLYLINE
  5
30BDB
330
A
100
AcDbEntity
  8
D-STR　構造物外形線
100
AcDbPolyline
 90
        2
 70
     0
 43
0.0
 10
199599.5577231221
 20
12420.09353227235
 10
198999.5577231221
 20
12420.09353227235
  0
LWPOLYLINE
  5
30BDC
330
A
100
AcDbEntity
  8
D-STR　構造物外形線
100
AcDbPolyline
 90
        4
 70
     0
 43
0.0
 10
198899.5577231221
 20
12320.09353227235
 10
198399.5577231221
 20
12320.09353227235
 10
198399.5577231221
 20
12225.09353227235
 10
198899.5577231221
 20
12225.09353227235
  0
LWPOLYLINE
  5
30BDD
330
A
100
AcDbEntity
  8
D-STR　構造物外形線
100
AcDbPolyline
 90
        2
 70
     0
 43
0.0
 10
198999.5577231221
 20
12225.09353227235
 10
199599.5577231221
 20
12225.09353227235
  0
LWPOLYLINE
  5
30BDE
330
A
100
AcDbEntity
  8
D-STR　構造物外形線
100
AcDbPolyline
 90
        4
 70
     0
 43
0.0
 10
199699.5577231221
 20
12225.09353227235
 10
200199.5577231221
 20
12225.09353227235
 10
200199.5577231221
 20
12320.09353227235
 10
199699.5577231221
 20
12320.09353227235
  0
LWPOLYLINE
  5
30BDF
330
A
100
AcDbEntity
  8
D-STR　構造物外形線
100
AcDbPolyline
 90
        2
 70
     0
 43
0.0
 10
199599.5577231221
 20
12320.09353227235
 10
198999.5577231221
 20
12320.09353227235
  0
LWPOLYLINE
  5
30BE0
330
A
100
AcDbEntity
  8
D-STR　構造物外形線
100
AcDbPolyline
 90
        4
 70
     0
 43
0.0
 10
198899.5577231221
 20
12220.09353227235
 10
198399.5577231221
 20
12220.09353227235
 10
198399.5577231221
 20
12125.09353227235
 10
198902.9433448444
 20
12125.09353227235
  0
LWPOLYLINE
  5
30BE1
330
A
100
AcDbEntity
  8
D-STR　構造物外形線
100
AcDbPolyline
 90
        2
 70
     0
 43
0.0
 10
198996.1721013998
 20
12125.09353227235
 10
199602.9433448444
 20
12125.09353227235
  0
LWPOLYLINE
  5
30BE2
330
A
100
AcDbEntity
  8
D-STR　構造物外形線
100
AcDbPolyline
 90
        4
 70
     0
 43
0.0
 10
199696.1721013998
 20
12125.09353227235
 10
200199.5577231221
 20
12125.09353227235
 10
200199.5577231221
 20
12220.09353227235
 10
199699.5577231221
 20
12220.09353227235
  0
LWPOLYLINE
  5
30BE3
330
A
100
AcDbEntity
  8
D-STR　構造物外形線
100
AcDbPolyline
 90
        2
 70
     0
 43
0.0
 10
199599.5577231221
 20
12220.09353227235
 10
198999.5577231221
 20
12220.09353227235
  0
LWPOLYLINE
  5
30BE4
330
A
100
AcDbEntity
  8
D-STR　構造物外形線
100
AcDbPolyline
 90
        4
 70
     1
 43
0.0
 10
198399.5577231221
 20
10902.11246295357
 10
200199.5577231221
 20
10902.11246295357
 10
200199.5577231221
 20
10952.11246295358
 10
198399.5577231221
 20
10952.11246295358
  0
LWPOLYLINE
  5
30BE5
330
A
100
AcDbEntity
  8
D-STR　構造物外形線
100
AcDbPolyline
 90
        8
 70
     1
 43
0.0
 10
201258.2760854933
 20
10902.11246295357
 10
201343.2760854934
 20
10902.11246295357
 42
0.4142135623730951
 10
201348.2760854933
 20
10907.11246295357
 10
201348.2760854933
 20
10947.11246295357
 42
0.4142135623730004
 10
201343.2760854934
 20
10952.11246295358
 10
201258.2760854933
 20
10952.11246295358
 42
0.4142135623730951
 10
201253.2760854933
 20
10947.11246295357
 10
201253.2760854933
 20
10907.11246295357
 42
0.4142135623731898
  0
LWPOLYLINE
  5
30BE6
330
A
100
AcDbEntity
  8
D-STR　構造物外形線
100
AcDbPolyline
 90
        8
 70
     1
 43
0.0
 10
201358.2760854933
 20
10902.11246295357
 10
201443.2760854933
 20
10902.11246295357
 42
0.4142135623730951
 10
201448.2760854933
 20
10907.11246295357
 10
201448.2760854933
 20
10947.11246295357
 42
0.4142135623730004
 10
201443.2760854933
 20
10952.11246295358
 10
201358.2760854934
 20
10952.11246295358
 42
0.4142135623730951
 10
201353.2760854934
 20
10947.11246295357
 10
201353.2760854933
 20
10907.11246295357
 42
0.4142135623731898
  0
LWPOLYLINE
  5
30BE7
330
A
100
AcDbEntity
  8
D-STR　構造物外形線
100
AcDbPolyline
 90
        8
 70
     1
 43
0.0
 10
201458.2760854933
 20
10902.11246295357
 10
201543.2760854933
 20
10902.11246295357
 42
0.4142135623730951
 10
201548.2760854933
 20
10907.11246295357
 10
201548.2760854933
 20
10947.11246295357
 42
0.4142135623730004
 10
201543.2760854933
 20
10952.11246295358
 10
201458.2760854933
 20
10952.11246295358
 42
0.4142135623730951
 10
201453.2760854933
 20
10947.11246295357
 10
201453.2760854933
 20
10907.11246295357
 42
0.4142135623731898
  0
LWPOLYLINE
  5
30BE8
330
A
100
AcDbEntity
  8
D-STR　構造物外形線
100
AcDbPolyline
 90
        8
 70
     1
 43
0.0
 10
201558.2760854933
 20
10902.11246295357
 10
201643.2760854934
 20
10902.11246295357
 42
0.4142135623730951
 10
201648.2760854934
 20
10907.11246295357
 10
201648.2760854934
 20
10947.11246295357
 42
0.4142135623730004
 10
201643.2760854934
 20
10952.11246295358
 10
201558.2760854933
 20
10952.11246295358
 42
0.4142135623730951
 10
201553.2760854934
 20
10947.11246295357
 10
201553.2760854933
 20
10907.11246295357
 42
0.4142135623731898
  0
LWPOLYLINE
  5
30BE9
330
A
100
AcDbEntity
  8
D-STR　構造物外形線
100
AcDbPolyline
 90
        4
 70
     1
 43
0.0
 10
201300.7760854933
 20
10827.11246295358
 10
201600.7760854933
 20
10827.11246295358
 10
201635.7760854933
 20
10902.11246295357
 10
201265.7760854933
 20
10902.11246295357
  0
LINE
  5
30BEC
330
A
100
AcDbEntity
  8
D-STR　構造物外形線
100
AcDbLine
 10
201912.5965256293
 20
10552.11246295358
 30
0.0
 11
201481.0260854933
 21
10552.11246295358
 31
0.0
  0
LINE
  5
30BED
330
A
100
AcDbEntity
  8
D-STR　構造物外形線
100
AcDbLine
 10
201300.7760854934
 20
10352.17641853765
 30
0.0
 11
201400.7121299092
 21
10452.11246295356
 31
0.0
  0
LINE
  5
30BEE
330
A
100
AcDbEntity
  8
D-STR　構造物外形線
100
AcDbLine
 10
201312.8441642652
 20
10152.11246295353
 30
0.0
 11
201420.5260854933
 21
10259.79438418164
 31
0.0
  0
LINE
  5
30BEF
330
A
100
AcDbEntity
  8
D-STR　構造物外形線
100
AcDbLine
 10
201481.0260854933
 20
10320.29438418167
 30
0.0
 11
201600.7760854933
 21
10440.04438418161
 31
0.0
  0
LINE
  5
30BF0
330
A
100
AcDbEntity
  8
D-STR　構造物外形線
100
AcDbLine
 10
201524.9761986212
 20
10152.11246295357
 30
0.0
 11
201600.7760854933
 21
10227.91234982568
 31
0.0
  0
LINE
  5
30BF1
330
A
100
AcDbEntity
  8
D-STR　構造物外形線
100
AcDbLine
 10
201300.7760854933
 20
10341.30141853764
 30
0.0
 11
201411.5871299092
 21
10452.11246295356
 31
0.0
  0
LINE
  5
30BF2
330
A
100
AcDbEntity
  8
D-STR　構造物外形線
100
AcDbLine
 10
201323.7191642652
 20
10152.11246295355
 30
0.0
 11
201420.5260854934
 21
10248.91938418167
 31
0.0
  0
LINE
  5
30BF3
330
A
100
AcDbEntity
  8
D-STR　構造物外形線
100
AcDbLine
 10
201481.0260854933
 20
10309.41938418167
 30
0.0
 11
201600.7760854933
 21
10429.16938418163
 31
0.0
  0
LINE
  5
30BF4
330
A
100
AcDbEntity
  8
D-STR　構造物外形線
100
AcDbLine
 10
201535.8511986212
 20
10152.11246295355
 30
0.0
 11
201600.7760854933
 21
10217.03734982569
 31
0.0
  0
LINE
  5
30BF5
330
A
100
AcDbEntity
  8
D-STR　構造物外形線
100
AcDbLine
 10
201300.7760854934
 20
10330.42641853765
 30
0.0
 11
201420.5260854933
 21
10450.17641853764
 31
0.0
  0
LINE
  5
30BF6
330
A
100
AcDbEntity
  8
D-STR　構造物外形線
100
AcDbLine
 10
201334.5941642652
 20
10152.11246295355
 30
0.0
 11
201420.5260854933
 21
10238.04438418167
 31
0.0
  0
LINE
  5
30BF7
330
A
100
AcDbEntity
  8
D-STR　構造物外形線
100
AcDbLine
 10
201481.0260854933
 20
10298.54438418169
 30
0.0
 11
201600.7760854933
 21
10418.29438418163
 31
0.0
  0
LINE
  5
30BF8
330
A
100
AcDbEntity
  8
D-STR　構造物外形線
100
AcDbLine
 10
201546.7261986211
 20
10152.11246295355
 30
0.0
 11
201600.7760854933
 21
10206.16234982571
 31
0.0
  0
LINE
  5
30BF9
330
A
100
AcDbEntity
  8
D-STR　構造物外形線
100
AcDbLine
 10
201481.0260854933
 20
10827.11246295358
 30
0.0
 11
201481.0260854933
 21
10152.11246295357
 31
0.0
  0
LINE
  5
30BFA
330
A
100
AcDbEntity
  8
D-STR　構造物外形線
100
AcDbLine
 10
201420.5260854933
 20
10827.11246295358
 30
0.0
 11
201420.5260854933
 21
10152.11246295357
 31
0.0
  0
LINE
  5
30BFB
330
A
100
AcDbEntity
  8
D-STR　構造物外形線
100
AcDbLine
 10
200029.8077231221
 20
10827.11246295358
 30
0.0
 11
200029.8077231221
 21
10552.11246295358
 31
0.0
  0
LINE
  5
30BFC
330
A
100
AcDbEntity
  8
D-STR　構造物外形線
100
AcDbLine
 10
199969.3077231221
 20
10827.11246295358
 30
0.0
 11
199969.3077231221
 21
10552.11246295358
 31
0.0
  0
LWPOLYLINE
  5
30BFD
330
A
100
AcDbEntity
  8
D-STR　構造物外形線
100
AcDbPolyline
 90
        4
 70
     1
 43
0.0
 10
198562.0577231221
 20
10827.11246295358
 10
198637.0577231221
 20
10827.11246295358
 10
198637.0577231221
 20
10902.11246295357
 10
198562.0577231221
 20
10902.11246295357
  0
LWPOLYLINE
  5
30BFE
330
A
100
AcDbEntity
  8
D-STR　構造物外形線
100
AcDbPolyline
 90
        4
 70
     1
 43
0.0
 10
199262.0577231221
 20
10827.11246295358
 10
199337.0577231221
 20
10827.11246295358
 10
199337.0577231221
 20
10902.11246295357
 10
199262.0577231221
 20
10902.11246295357
  0
LWPOLYLINE
  5
30BFF
330
A
100
AcDbEntity
  8
D-STR　構造物外形線
100
AcDbPolyline
 90
        4
 70
     1
 43
0.0
 10
199962.0577231221
 20
10827.11246295358
 10
200037.0577231221
 20
10827.11246295358
 10
200037.0577231221
 20
10902.11246295357
 10
199962.0577231221
 20
10902.11246295357
  0
LINE
  5
30C00
330
A
100
AcDbEntity
  8
D-STR　構造物外形線
100
AcDbLine
 10
200358.8455435204
 20
10552.11246295358
 30
0.0
 11
198629.8077231221
 21
10552.11246295358
 31
0.0
  0
LINE
  5
30C01
330
A
100
AcDbEntity
  8
D-STR　構造物外形線
100
AcDbLine
 10
199329.8077231221
 20
10827.11246295358
 30
0.0
 11
199329.8077231221
 21
10552.11246295358
 31
0.0
  0
LINE
  5
30C02
330
A
100
AcDbEntity
  8
D-STR　構造物外形線
100
AcDbLine
 10
199269.3077231221
 20
10827.11246295358
 30
0.0
 11
199269.3077231221
 21
10552.11246295358
 31
0.0
  0
LINE
  5
30C03
330
A
100
AcDbEntity
  8
D-STR　構造物外形線
100
AcDbLine
 10
198449.5577231221
 20
10258.67450279403
 30
0.0
 11
198569.3077231221
 21
10378.424502794
 31
0.0
  0
LINE
  5
30C04
330
A
100
AcDbEntity
  8
D-STR　構造物外形線
100
AcDbLine
 10
198629.8077231222
 20
10438.92450279405
 30
0.0
 11
198642.9956832816
 21
10452.11246295355
 31
0.0
  0
LINE
  5
30C05
330
A
100
AcDbEntity
  8
D-STR　構造物外形線
100
AcDbLine
 10
198555.1277176377
 20
10152.11246295355
 30
0.0
 11
198569.3077231221
 21
10166.29246843804
 31
0.0
  0
LINE
  5
30C06
330
A
100
AcDbEntity
  8
D-STR　構造物外形線
100
AcDbLine
 10
198629.8077231221
 20
10226.79246843805
 30
0.0
 11
198749.5577231221
 21
10346.54246843805
 31
0.0
  0
LINE
  5
30C07
330
A
100
AcDbEntity
  8
D-STR　構造物外形線
100
AcDbLine
 10
198449.5577231221
 20
10247.79950279402
 30
0.0
 11
198569.3077231221
 21
10367.54950279402
 31
0.0
  0
LINE
  5
30C08
330
A
100
AcDbEntity
  8
D-STR　構造物外形線
100
AcDbLine
 10
198629.8077231221
 20
10428.04950279402
 30
0.0
 11
198653.8706832817
 21
10452.11246295355
 31
0.0
  0
LINE
  5
30C09
330
A
100
AcDbEntity
  8
D-STR　構造物外形線
100
AcDbLine
 10
198566.0027176376
 20
10152.11246295355
 30
0.0
 11
198569.3077231221
 21
10155.41746843807
 31
0.0
  0
LINE
  5
30C0A
330
A
100
AcDbEntity
  8
D-STR　構造物外形線
100
AcDbLine
 10
198629.8077231221
 20
10215.91746843804
 30
0.0
 11
198749.5577231221
 21
10335.66746843804
 31
0.0
  0
LINE
  5
30C0B
330
A
100
AcDbEntity
  8
D-STR　構造物外形線
100
AcDbLine
 10
198449.5577231222
 20
10449.05653715
 30
0.0
 11
198452.6136489257
 21
10452.11246295355
 31
0.0
  0
LINE
  5
30C0C
330
A
100
AcDbEntity
  8
D-STR　構造物外形線
100
AcDbLine
 10
198449.5577231222
 20
10236.92450279405
 30
0.0
 11
198569.3077231221
 21
10356.67450279403
 31
0.0
  0
LINE
  5
30C0D
330
A
100
AcDbEntity
  8
D-STR　構造物外形線
100
AcDbLine
 10
198629.8077231221
 20
10417.17450279403
 30
0.0
 11
198664.7456832817
 21
10452.11246295355
 31
0.0
  0
LINE
  5
30C0E
330
A
100
AcDbEntity
  8
D-STR　構造物外形線
100
AcDbLine
 10
198629.8077231222
 20
10205.04246843807
 30
0.0
 11
198749.5577231221
 21
10324.79246843805
 31
0.0
  0
LINE
  5
30C0F
330
A
100
AcDbEntity
  8
D-STR　構造物外形線
100
AcDbLine
 10
198629.8077231221
 20
10827.11246295358
 30
0.0
 11
198629.8077231221
 21
10152.11246295357
 31
0.0
  0
LINE
  5
30C10
330
A
100
AcDbEntity
  8
D-STR　構造物外形線
100
AcDbLine
 10
198569.3077231221
 20
10827.11246295358
 30
0.0
 11
198569.3077231221
 21
10152.11246295357
 31
0.0
  0
LINE
  5
30C11
330
A
100
AcDbEntity
  8
D-STR　構造物外形線
100
AcDbLine
 10
201450.7760854933
 20
10958.11246295357
 30
0.0
 11
201450.7760854933
 21
10952.11246295358
 31
0.0
  0
LWPOLYLINE
  5
30C12
330
A
100
AcDbEntity
  8
D-STR　構造物外形線
100
AcDbPolyline
 90
        6
 70
     0
 43
0.0
 10
201378.2760854933
 20
11071.11246295358
 10
201316.6789424904
 20
11071.11246295355
 42
0.5305984520675628
 10
201298.1094086727
 20
11043.68464942646
 10
201329.8238459673
 20
10964.39855619002
 42
0.3066784415587993
 10
201339.1086128762
 20
10958.11246295357
 10
201478.2760854934
 20
10958.11246295357
  0
LWPOLYLINE
  5
30C13
330
A
100
AcDbEntity
  8
D-STR　構造物外形線
100
AcDbPolyline
 90
        6
 70
     0
 43
0.0
 10
201378.2760854933
 20
11077.11246295357
 10
201316.6789424904
 20
11077.11246295355
 42
0.5305984520674772
 10
201292.5385485273
 20
11041.45630536834
 10
201324.252985822
 20
10962.17021213189
 42
0.3066784415587866
 10
201339.1086128762
 20
10952.11246295358
 10
201478.2760854934
 20
10952.11246295358
  0
LINE
  5
30C14
330
A
100
AcDbEntity
  8
D-STR　構造物外形線
100
AcDbLine
 10
201378.2760854933
 20
11077.11246295357
 30
0.0
 11
201378.2760854933
 21
11071.11246295358
 31
0.0
  0
LWPOLYLINE
  5
30C15
330
A
100
AcDbEntity
  8
D-STR　構造物外形線
100
AcDbPolyline
 90
        6
 70
     0
 43
0.0
 10
201523.2760854933
 20
11077.11246295357
 10
201578.9650966505
 20
11077.11246295357
 42
-0.5305984520675043
 10
201606.8193973771
 20
11035.97074266293
 10
201577.0477414352
 20
10961.54160280825
 42
-0.3066784415588277
 10
201563.1205910719
 20
10952.11246295358
 10
201423.2760854933
 20
10952.11246295358
  0
LWPOLYLINE
  5
30C16
330
A
100
AcDbEntity
  8
D-STR　構造物外形線
100
AcDbPolyline
 90
        6
 70
     0
 43
0.0
 10
201523.2760854933
 20
11071.11246295358
 10
201578.9650966505
 20
11071.11246295358
 42
-0.5305984520675821
 10
201601.2485372318
 20
11038.19908672105
 10
201571.4768812899
 20
10963.76994686637
 42
-0.306678441558869
 10
201563.1205910719
 20
10958.11246295357
 10
201423.2760854933
 20
10958.11246295357
  0
LINE
  5
30C17
330
A
100
AcDbEntity
  8
D-STR　構造物外形線
100
AcDbLine
 10
201523.2760854933
 20
11077.11246295357
 30
0.0
 11
201523.2760854933
 21
11071.11246295358
 31
0.0
  0
CIRCLE
  5
30C18
330
A
100
AcDbEntity
  8
D-STR　構造物外形線
100
AcDbCircle
 10
198599.5577231221
 20
12197.59353227235
 30
0.0
 40
6.5
  0
CIRCLE
  5
30C19
330
A
100
AcDbEntity
  8
D-STR　構造物外形線
100
AcDbCircle
 10
198599.5577231221
 20
12147.59353227235
 30
0.0
 40
6.5
  0
CIRCLE
  5
30C1A
330
A
100
AcDbEntity
  8
D-STR　構造物外形線
100
AcDbCircle
 10
199299.5577231221
 20
12197.59353227235
 30
0.0
 40
6.5
  0
CIRCLE
  5
30C1B
330
A
100
AcDbEntity
  8
D-STR　構造物外形線
100
AcDbCircle
 10
199299.5577231221
 20
12147.59353227235
 30
0.0
 40
6.5
  0
CIRCLE
  5
30C1C
330
A
100
AcDbEntity
  8
D-STR　構造物外形線
100
AcDbCircle
 10
199999.5577231221
 20
12197.59353227235
 30
0.0
 40
6.5
  0
CIRCLE
  5
30C1D
330
A
100
AcDbEntity
  8
D-STR　構造物外形線
100
AcDbCircle
 10
199999.5577231221
 20
12147.59353227235
 30
0.0
 40
6.5
  0
LINE
  5
30C1E
330
A
100
AcDbEntity
  8
D-STR　構造物外形線
100
AcDbLine
 10
200006.0577159612
 20
10953.21246628923
 30
0.0
 11
200006.0577154927
 21
10952.11246018569
 31
0.0
  0
LINE
  5
30C1F
330
A
100
AcDbEntity
  8
D-STR　構造物外形線
100
AcDbLine
 10
200006.0576701848
 20
10953.21246628923
 30
0.0
 11
200005.0576629812
 21
10954.21245145629
 31
0.0
  0
LINE
  5
30C20
330
A
100
AcDbEntity
  8
D-STR　構造物外形線
100
AcDbLine
 10
199994.0577392752
 20
10954.21245614035
 30
0.0
 11
200005.0577316458
 21
10954.21245145626
 31
0.0
  0
LINE
  5
30C21
330
A
100
AcDbEntity
  8
D-STR　構造物外形線
100
AcDbLine
 10
199993.0577312199
 20
10953.21242604861
 30
0.0
 11
199993.0577307515
 21
10952.11246572144
 31
0.0
  0
LINE
  5
30C22
330
A
100
AcDbEntity
  8
D-STR　構造物外形線
100
AcDbLine
 10
199994.0578308278
 20
10954.21236458758
 30
0.0
 11
199993.0578227726
 21
10953.21233449582
 31
0.0
  0
LINE
  5
30C23
330
A
100
AcDbEntity
  8
D-STR　構造物外形線
100
AcDbLine
 10
199993.0577312199
 20
10953.21247182495
 30
0.0
 11
200006.0577159612
 21
10953.21246628923
 31
0.0
  0
LINE
  5
30C24
330
A
100
AcDbEntity
  8
D-STR　構造物外形線
 48
0.1
100
AcDbLine
 10
199993.0577307515
 20
10952.11246572144
 30
0.0
 11
200006.0577154927
 21
10952.11246018569
 31
0.0
  0
LINE
  5
30C25
330
A
100
AcDbEntity
  8
D-STR　構造物外形線
100
AcDbLine
 10
199306.0577159611
 20
10953.21246628923
 30
0.0
 11
199306.0577154927
 21
10952.11246018569
 31
0.0
  0
LINE
  5
30C26
330
A
100
AcDbEntity
  8
D-STR　構造物外形線
100
AcDbLine
 10
199306.0576701848
 20
10953.21246628923
 30
0.0
 11
199305.0576629812
 21
10954.21245145629
 31
0.0
  0
LINE
  5
30C27
330
A
100
AcDbEntity
  8
D-STR　構造物外形線
100
AcDbLine
 10
199294.0577392752
 20
10954.21245614035
 30
0.0
 11
199305.0577316457
 21
10954.21245145626
 31
0.0
  0
LINE
  5
30C28
330
A
100
AcDbEntity
  8
D-STR　構造物外形線
100
AcDbLine
 10
199293.0577312199
 20
10953.21242604861
 30
0.0
 11
199293.0577307515
 21
10952.11246572144
 31
0.0
  0
LINE
  5
30C29
330
A
100
AcDbEntity
  8
D-STR　構造物外形線
100
AcDbLine
 10
199294.0578308278
 20
10954.21236458758
 30
0.0
 11
199293.0578227726
 21
10953.21233449582
 31
0.0
  0
LINE
  5
30C2A
330
A
100
AcDbEntity
  8
D-STR　構造物外形線
100
AcDbLine
 10
199293.0577312199
 20
10953.21247182495
 30
0.0
 11
199306.0577159611
 21
10953.21246628923
 31
0.0
  0
LINE
  5
30C2B
330
A
100
AcDbEntity
  8
D-STR　構造物外形線
 48
0.1
100
AcDbLine
 10
199293.0577307515
 20
10952.11246572144
 30
0.0
 11
199306.0577154927
 21
10952.11246018569
 31
0.0
  0
LINE
  5
30C2C
330
A
100
AcDbEntity
  8
D-STR　構造物外形線
100
AcDbLine
 10
198606.0577159611
 20
10953.21246628923
 30
0.0
 11
198606.0577154927
 21
10952.11246018569
 31
0.0
  0
LINE
  5
30C2D
330
A
100
AcDbEntity
  8
D-STR　構造物外形線
100
AcDbLine
 10
198606.0576701848
 20
10953.21246628923
 30
0.0
 11
198605.0576629812
 21
10954.21245145629
 31
0.0
  0
LINE
  5
30C2E
330
A
100
AcDbEntity
  8
D-STR　構造物外形線
100
AcDbLine
 10
198594.0577392751
 20
10954.21245614035
 30
0.0
 11
198605.0577316457
 21
10954.21245145626
 31
0.0
  0
LINE
  5
30C2F
330
A
100
AcDbEntity
  8
D-STR　構造物外形線
100
AcDbLine
 10
198593.0577312199
 20
10953.21242604861
 30
0.0
 11
198593.0577307515
 21
10952.11246572144
 31
0.0
  0
LINE
  5
30C30
330
A
100
AcDbEntity
  8
D-STR　構造物外形線
100
AcDbLine
 10
198594.0578308278
 20
10954.21236458758
 30
0.0
 11
198593.0578227726
 21
10953.21233449582
 31
0.0
  0
LINE
  5
30C31
330
A
100
AcDbEntity
  8
D-STR　構造物外形線
100
AcDbLine
 10
198593.0577312199
 20
10953.21247182495
 30
0.0
 11
198606.0577159611
 21
10953.21246628923
 31
0.0
  0
LINE
  5
30C32
330
A
100
AcDbEntity
  8
D-STR　構造物外形線
 48
0.1
100
AcDbLine
 10
198593.0577307515
 20
10952.11246572144
 30
0.0
 11
198606.0577154927
 21
10952.11246018569
 31
0.0
  0
LWPOLYLINE
  5
30C33
330
A
100
AcDbEntity
  8
D-STR　構造物外形線
100
AcDbPolyline
 90
        4
 70
     1
 43
0.0
 10
198912.0577231221
 20
10952.11246295358
 10
198987.0577231221
 20
10952.11246295358
 10
198987.0577231221
 20
11077.11246295357
 10
198912.0577231221
 20
11077.11246295357
  0
LWPOLYLINE
  5
30C34
330
A
100
AcDbEntity
  8
D-STR　構造物外形線
100
AcDbPolyline
 90
        8
 70
     1
 43
0.0
 10
198909.5577231221
 20
11077.11246295357
 10
198989.5577231221
 20
11077.11246295357
 42
0.4142135623730951
 10
198999.5577231221
 20
11087.11246295357
 10
198999.5577231221
 20
11092.11246295358
 42
0.4142135623730951
 10
198989.5577231221
 20
11102.11246295357
 10
198909.5577231221
 20
11102.11246295357
 42
0.4142135623730951
 10
198899.5577231221
 20
11092.11246295358
 10
198899.5577231221
 20
11087.11246295355
 42
0.4142135623727873
  0
LWPOLYLINE
  5
30C35
330
A
100
AcDbEntity
  8
D-STR　構造物外形線
100
AcDbPolyline
 90
        4
 70
     1
 43
0.0
 10
198924.5577231221
 20
10897.61246295358
 10
198974.5577231221
 20
10897.61246295358
 10
198974.5577231221
 20
10902.11246295357
 10
198924.5577231221
 20
10902.11246295357
  0
LWPOLYLINE
  5
30C36
330
A
100
AcDbEntity
  8
D-STR　構造物外形線
100
AcDbPolyline
 90
        4
 70
     1
 43
0.0
 10
199687.0577231221
 20
10952.11246295358
 10
199612.0577231221
 20
10952.11246295358
 10
199612.0577231221
 20
11077.11246295357
 10
199687.0577231221
 20
11077.11246295357
  0
LWPOLYLINE
  5
30C37
330
A
100
AcDbEntity
  8
D-STR　構造物外形線
100
AcDbPolyline
 90
        8
 70
     1
 43
0.0
 10
199689.5577231222
 20
11077.11246295357
 10
199609.5577231221
 20
11077.11246295357
 42
-0.4142135623730951
 10
199599.5577231221
 20
11087.11246295357
 10
199599.5577231221
 20
11092.11246295358
 42
-0.4142135623730951
 10
199609.5577231221
 20
11102.11246295357
 10
199689.5577231221
 20
11102.11246295357
 42
-0.4142135623730951
 10
199699.5577231221
 20
11092.11246295358
 10
199699.5577231222
 20
11087.11246295355
 42
-0.4142135623727873
  0
LWPOLYLINE
  5
30C38
330
A
100
AcDbEntity
  8
D-STR　構造物外形線
100
AcDbPolyline
 90
        4
 70
     1
 43
0.0
 10
199674.5577231221
 20
10897.61246295358
 10
199624.5577231221
 20
10897.61246295358
 10
199624.5577231221
 20
10902.11246295357
 10
199674.5577231221
 20
10902.11246295357
  0
LINE
  5
30C3B
330
A
100
AcDbEntity
  8
D-STR　構造物外形線
100
AcDbLine
 10
201282.2760783323
 20
10953.2124662892
 30
0.0
 11
201282.2760778639
 21
10952.11246018569
 31
0.0
  0
LINE
  5
30C3C
330
A
100
AcDbEntity
  8
D-STR　構造物外形線
100
AcDbLine
 10
201282.276032556
 20
10953.2124662892
 30
0.0
 11
201281.2760253524
 21
10954.21245145629
 31
0.0
  0
LINE
  5
30C3E
330
A
100
AcDbEntity
  8
D-STR　構造物外形線
100
AcDbLine
 10
201270.2761016463
 20
10954.21245614031
 30
0.0
 11
201281.2760940169
 21
10954.21245145623
 31
0.0
  0
LINE
  5
30C45
330
A
100
AcDbEntity
  8
D-STR　構造物外形線
100
AcDbLine
 10
201269.2760935911
 20
10953.21242604859
 30
0.0
 11
201269.2760931227
 21
10952.11246572144
 31
0.0
  0
LINE
  5
30C46
330
A
100
AcDbEntity
  8
D-STR　構造物外形線
100
AcDbLine
 10
201270.276193199
 20
10954.21236458755
 30
0.0
 11
201269.2761851438
 21
10953.21233449582
 31
0.0
  0
LINE
  5
30C47
330
A
100
AcDbEntity
  8
D-STR　構造物外形線
100
AcDbLine
 10
201269.2760935911
 20
10953.21247182495
 30
0.0
 11
201282.2760783323
 21
10953.2124662892
 31
0.0
  0
LINE
  5
30C48
330
A
100
AcDbEntity
  8
D-STR　構造物外形線
 48
0.1
100
AcDbLine
 10
201269.2760931227
 20
10952.11246572144
 30
0.0
 11
201282.2760778639
 21
10952.11246018569
 31
0.0
  0
LINE
  5
30C4C
330
A
100
AcDbEntity
  8
D-STR　構造物外形線
100
AcDbLine
 10
201319.2760926543
 20
10953.2124662892
 30
0.0
 11
201319.2760931227
 21
10952.11246018565
 31
0.0
  0
LINE
  5
30C4D
330
A
100
AcDbEntity
  8
D-STR　構造物外形線
100
AcDbLine
 10
201319.2761384306
 20
10953.21246628917
 30
0.0
 11
201320.2761456342
 21
10954.21245145623
 31
0.0
  0
LINE
  5
30C4F
330
A
100
AcDbEntity
  8
D-STR　構造物外形線
100
AcDbLine
 10
201331.2760693403
 20
10954.21245614029
 30
0.0
 11
201320.2760769697
 21
10954.2124514562
 31
0.0
  0
LINE
  5
30C56
330
A
100
AcDbEntity
  8
D-STR　構造物外形線
100
AcDbLine
 10
201332.2760773955
 20
10953.21242604855
 30
0.0
 11
201332.2760778639
 21
10952.11246572141
 31
0.0
  0
LINE
  5
30C57
330
A
100
AcDbEntity
  8
D-STR　構造物外形線
100
AcDbLine
 10
201331.2759777876
 20
10954.21236458752
 30
0.0
 11
201332.2759858428
 21
10953.21233449576
 31
0.0
  0
LINE
  5
30C58
330
A
100
AcDbEntity
  8
D-STR　構造物外形線
100
AcDbLine
 10
201332.2760773954
 20
10953.21247182489
 30
0.0
 11
201319.2760926543
 21
10953.2124662892
 31
0.0
  0
LINE
  5
30C59
330
A
100
AcDbEntity
  8
D-STR　構造物外形線
 48
0.1
100
AcDbLine
 10
201332.2760778639
 20
10952.11246572141
 30
0.0
 11
201319.2760931227
 21
10952.11246018565
 31
0.0
  0
LINE
  5
30C69
330
A
100
AcDbEntity
  8
D-STR　構造物外形線
100
AcDbLine
 10
201382.2760783323
 20
10953.2124662892
 30
0.0
 11
201382.2760778639
 21
10952.11246018569
 31
0.0
  0
LINE
  5
30C6A
330
A
100
AcDbEntity
  8
D-STR　構造物外形線
100
AcDbLine
 10
201382.276032556
 20
10953.2124662892
 30
0.0
 11
201381.2760253524
 21
10954.21245145629
 31
0.0
  0
LINE
  5
30C6C
330
A
100
AcDbEntity
  8
D-STR　構造物外形線
100
AcDbLine
 10
201370.2761016463
 20
10954.21245614031
 30
0.0
 11
201381.2760940169
 21
10954.21245145623
 31
0.0
  0
LINE
  5
30C73
330
A
100
AcDbEntity
  8
D-STR　構造物外形線
100
AcDbLine
 10
201369.2760935911
 20
10953.21242604859
 30
0.0
 11
201369.2760931227
 21
10952.11246572144
 31
0.0
  0
LINE
  5
30C74
330
A
100
AcDbEntity
  8
D-STR　構造物外形線
100
AcDbLine
 10
201370.276193199
 20
10954.21236458755
 30
0.0
 11
201369.2761851438
 21
10953.21233449582
 31
0.0
  0
LINE
  5
30C75
330
A
100
AcDbEntity
  8
D-STR　構造物外形線
100
AcDbLine
 10
201369.2760935911
 20
10953.21247182495
 30
0.0
 11
201382.2760783323
 21
10953.2124662892
 31
0.0
  0
LINE
  5
30C76
330
A
100
AcDbEntity
  8
D-STR　構造物外形線
 48
0.1
100
AcDbLine
 10
201369.2760931227
 20
10952.11246572144
 30
0.0
 11
201382.2760778639
 21
10952.11246018569
 31
0.0
  0
LINE
  5
30C7A
330
A
100
AcDbEntity
  8
D-STR　構造物外形線
100
AcDbLine
 10
201419.2760926543
 20
10953.2124662892
 30
0.0
 11
201419.2760931227
 21
10952.11246018565
 31
0.0
  0
LINE
  5
30C7B
330
A
100
AcDbEntity
  8
D-STR　構造物外形線
100
AcDbLine
 10
201419.2761384307
 20
10953.21246628917
 30
0.0
 11
201420.2761456342
 21
10954.21245145623
 31
0.0
  0
LINE
  5
30C7D
330
A
100
AcDbEntity
  8
D-STR　構造物外形線
100
AcDbLine
 10
201431.2760693403
 20
10954.21245614029
 30
0.0
 11
201420.2760769697
 21
10954.2124514562
 31
0.0
  0
LINE
  5
30C84
330
A
100
AcDbEntity
  8
D-STR　構造物外形線
100
AcDbLine
 10
201432.2760773955
 20
10953.21242604855
 30
0.0
 11
201432.2760778639
 21
10952.11246572141
 31
0.0
  0
LINE
  5
30C85
330
A
100
AcDbEntity
  8
D-STR　構造物外形線
100
AcDbLine
 10
201431.2759777876
 20
10954.21236458752
 30
0.0
 11
201432.2759858428
 21
10953.21233449576
 31
0.0
  0
LINE
  5
30C86
330
A
100
AcDbEntity
  8
D-STR　構造物外形線
100
AcDbLine
 10
201432.2760773954
 20
10953.21247182489
 30
0.0
 11
201419.2760926543
 21
10953.2124662892
 31
0.0
  0
LINE
  5
30C87
330
A
100
AcDbEntity
  8
D-STR　構造物外形線
 48
0.1
100
AcDbLine
 10
201432.2760778639
 20
10952.11246572141
 30
0.0
 11
201419.2760931227
 21
10952.11246018565
 31
0.0
  0
LINE
  5
30C8B
330
A
100
AcDbEntity
  8
D-STR　構造物外形線
100
AcDbLine
 10
201482.2760783323
 20
10953.2124662892
 30
0.0
 11
201482.2760778639
 21
10952.11246018569
 31
0.0
  0
LINE
  5
30C8C
330
A
100
AcDbEntity
  8
D-STR　構造物外形線
100
AcDbLine
 10
201482.276032556
 20
10953.2124662892
 30
0.0
 11
201481.2760253524
 21
10954.21245145629
 31
0.0
  0
LINE
  5
30C8E
330
A
100
AcDbEntity
  8
D-STR　構造物外形線
100
AcDbLine
 10
201470.2761016463
 20
10954.21245614031
 30
0.0
 11
201481.2760940169
 21
10954.21245145623
 31
0.0
  0
LINE
  5
30C95
330
A
100
AcDbEntity
  8
D-STR　構造物外形線
100
AcDbLine
 10
201469.2760935911
 20
10953.21242604859
 30
0.0
 11
201469.2760931227
 21
10952.11246572144
 31
0.0
  0
LINE
  5
30C96
330
A
100
AcDbEntity
  8
D-STR　構造物外形線
100
AcDbLine
 10
201470.276193199
 20
10954.21236458755
 30
0.0
 11
201469.2761851438
 21
10953.21233449582
 31
0.0
  0
LINE
  5
30C97
330
A
100
AcDbEntity
  8
D-STR　構造物外形線
100
AcDbLine
 10
201469.2760935911
 20
10953.21247182495
 30
0.0
 11
201482.2760783323
 21
10953.2124662892
 31
0.0
  0
LINE
  5
30C98
330
A
100
AcDbEntity
  8
D-STR　構造物外形線
 48
0.1
100
AcDbLine
 10
201469.2760931227
 20
10952.11246572144
 30
0.0
 11
201482.2760778639
 21
10952.11246018569
 31
0.0
  0
LINE
  5
30C9C
330
A
100
AcDbEntity
  8
D-STR　構造物外形線
100
AcDbLine
 10
201519.2760926543
 20
10953.2124662892
 30
0.0
 11
201519.2760931227
 21
10952.11246018565
 31
0.0
  0
LINE
  5
30C9D
330
A
100
AcDbEntity
  8
D-STR　構造物外形線
100
AcDbLine
 10
201519.2761384307
 20
10953.21246628917
 30
0.0
 11
201520.2761456342
 21
10954.21245145623
 31
0.0
  0
LINE
  5
30C9F
330
A
100
AcDbEntity
  8
D-STR　構造物外形線
100
AcDbLine
 10
201531.2760693403
 20
10954.21245614029
 30
0.0
 11
201520.2760769697
 21
10954.2124514562
 31
0.0
  0
LINE
  5
30CA6
330
A
100
AcDbEntity
  8
D-STR　構造物外形線
100
AcDbLine
 10
201532.2760773955
 20
10953.21242604855
 30
0.0
 11
201532.2760778639
 21
10952.11246572141
 31
0.0
  0
LINE
  5
30CA7
330
A
100
AcDbEntity
  8
D-STR　構造物外形線
100
AcDbLine
 10
201531.2759777875
 20
10954.21236458752
 30
0.0
 11
201532.2759858428
 21
10953.21233449576
 31
0.0
  0
LINE
  5
30CA8
330
A
100
AcDbEntity
  8
D-STR　構造物外形線
100
AcDbLine
 10
201532.2760773954
 20
10953.21247182489
 30
0.0
 11
201519.2760926543
 21
10953.2124662892
 31
0.0
  0
LINE
  5
30CA9
330
A
100
AcDbEntity
  8
D-STR　構造物外形線
 48
0.1
100
AcDbLine
 10
201532.2760778639
 20
10952.11246572141
 30
0.0
 11
201519.2760931227
 21
10952.11246018565
 31
0.0
  0
LINE
  5
30CAD
330
A
100
AcDbEntity
  8
D-STR　構造物外形線
100
AcDbLine
 10
201582.2760783323
 20
10953.2124662892
 30
0.0
 11
201582.2760778639
 21
10952.11246018569
 31
0.0
  0
LINE
  5
30CAE
330
A
100
AcDbEntity
  8
D-STR　構造物外形線
100
AcDbLine
 10
201582.276032556
 20
10953.2124662892
 30
0.0
 11
201581.2760253524
 21
10954.21245145629
 31
0.0
  0
LINE
  5
30CB0
330
A
100
AcDbEntity
  8
D-STR　構造物外形線
100
AcDbLine
 10
201570.2761016463
 20
10954.21245614031
 30
0.0
 11
201581.2760940169
 21
10954.21245145623
 31
0.0
  0
LINE
  5
30CB7
330
A
100
AcDbEntity
  8
D-STR　構造物外形線
100
AcDbLine
 10
201569.2760935911
 20
10953.21242604859
 30
0.0
 11
201569.2760931226
 21
10952.11246572144
 31
0.0
  0
LINE
  5
30CB8
330
A
100
AcDbEntity
  8
D-STR　構造物外形線
100
AcDbLine
 10
201570.276193199
 20
10954.21236458755
 30
0.0
 11
201569.2761851438
 21
10953.21233449582
 31
0.0
  0
LINE
  5
30CB9
330
A
100
AcDbEntity
  8
D-STR　構造物外形線
100
AcDbLine
 10
201569.2760935911
 20
10953.21247182495
 30
0.0
 11
201582.2760783323
 21
10953.2124662892
 31
0.0
  0
LINE
  5
30CBA
330
A
100
AcDbEntity
  8
D-STR　構造物外形線
 48
0.1
100
AcDbLine
 10
201569.2760931226
 20
10952.11246572144
 30
0.0
 11
201582.2760778639
 21
10952.11246018569
 31
0.0
  0
LINE
  5
30CBE
330
A
100
AcDbEntity
  8
D-STR　構造物外形線
100
AcDbLine
 10
201619.2760926543
 20
10953.2124662892
 30
0.0
 11
201619.2760931227
 21
10952.11246018565
 31
0.0
  0
LINE
  5
30CBF
330
A
100
AcDbEntity
  8
D-STR　構造物外形線
100
AcDbLine
 10
201619.2761384306
 20
10953.21246628917
 30
0.0
 11
201620.2761456342
 21
10954.21245145623
 31
0.0
  0
LINE
  5
30CC1
330
A
100
AcDbEntity
  8
D-STR　構造物外形線
100
AcDbLine
 10
201631.2760693403
 20
10954.21245614029
 30
0.0
 11
201620.2760769697
 21
10954.2124514562
 31
0.0
  0
LINE
  5
30CC8
330
A
100
AcDbEntity
  8
D-STR　構造物外形線
100
AcDbLine
 10
201632.2760773955
 20
10953.21242604855
 30
0.0
 11
201632.2760778639
 21
10952.11246572141
 31
0.0
  0
LINE
  5
30CC9
330
A
100
AcDbEntity
  8
D-STR　構造物外形線
100
AcDbLine
 10
201631.2759777876
 20
10954.21236458752
 30
0.0
 11
201632.2759858428
 21
10953.21233449576
 31
0.0
  0
LINE
  5
30CCA
330
A
100
AcDbEntity
  8
D-STR　構造物外形線
100
AcDbLine
 10
201632.2760773954
 20
10953.21247182489
 30
0.0
 11
201619.2760926543
 21
10953.2124662892
 31
0.0
  0
LINE
  5
30CCB
330
A
100
AcDbEntity
  8
D-STR　構造物外形線
 48
0.1
100
AcDbLine
 10
201632.2760778639
 20
10952.11246572141
 30
0.0
 11
201619.2760931227
 21
10952.11246018565
 31
0.0
  0
CIRCLE
  5
30CCD
330
A
100
AcDbEntity
  8
D-STR　構造物外形線
100
AcDbCircle
 10
198599.5577231221
 20
12297.59353227235
 30
0.0
 40
6.5
  0
CIRCLE
  5
30CCE
330
A
100
AcDbEntity
  8
D-STR　構造物外形線
100
AcDbCircle
 10
198599.5577231221
 20
12247.59353227235
 30
0.0
 40
6.5
  0
CIRCLE
  5
30CCF
330
A
100
AcDbEntity
  8
D-STR　構造物外形線
100
AcDbCircle
 10
199299.5577231221
 20
12297.59353227235
 30
0.0
 40
6.5
  0
CIRCLE
  5
30CD0
330
A
100
AcDbEntity
  8
D-STR　構造物外形線
100
AcDbCircle
 10
199299.5577231221
 20
12247.59353227235
 30
0.0
 40
6.5
  0
CIRCLE
  5
30CD1
330
A
100
AcDbEntity
  8
D-STR　構造物外形線
100
AcDbCircle
 10
199999.5577231221
 20
12297.59353227235
 30
0.0
 40
6.5
  0
CIRCLE
  5
30CD2
330
A
100
AcDbEntity
  8
D-STR　構造物外形線
100
AcDbCircle
 10
199999.5577231221
 20
12247.59353227235
 30
0.0
 40
6.5
  0
CIRCLE
  5
30CD3
330
A
100
AcDbEntity
  8
D-STR　構造物外形線
100
AcDbCircle
 10
198599.5577231221
 20
12397.59353227235
 30
0.0
 40
6.5
  0
CIRCLE
  5
30CD4
330
A
100
AcDbEntity
  8
D-STR　構造物外形線
100
AcDbCircle
 10
198599.5577231221
 20
12347.59353227235
 30
0.0
 40
6.5
  0
CIRCLE
  5
30CD5
330
A
100
AcDbEntity
  8
D-STR　構造物外形線
100
AcDbCircle
 10
199299.5577231221
 20
12397.59353227235
 30
0.0
 40
6.5
  0
CIRCLE
  5
30CD6
330
A
100
AcDbEntity
  8
D-STR　構造物外形線
100
AcDbCircle
 10
199299.5577231221
 20
12347.59353227235
 30
0.0
 40
6.5
  0
CIRCLE
  5
30CD7
330
A
100
AcDbEntity
  8
D-STR　構造物外形線
100
AcDbCircle
 10
199999.5577231221
 20
12397.59353227235
 30
0.0
 40
6.5
  0
CIRCLE
  5
30CD8
330
A
100
AcDbEntity
  8
D-STR　構造物外形線
100
AcDbCircle
 10
199999.5577231221
 20
12347.59353227235
 30
0.0
 40
6.5
  0
CIRCLE
  5
30CD9
330
A
100
AcDbEntity
  8
D-STR　構造物外形線
100
AcDbCircle
 10
198599.5577231221
 20
12497.59353227235
 30
0.0
 40
6.5
  0
CIRCLE
  5
30CDA
330
A
100
AcDbEntity
  8
D-STR　構造物外形線
100
AcDbCircle
 10
198599.5577231221
 20
12447.59353227235
 30
0.0
 40
6.5
  0
CIRCLE
  5
30CDB
330
A
100
AcDbEntity
  8
D-STR　構造物外形線
100
AcDbCircle
 10
199299.5577231221
 20
12497.59353227235
 30
0.0
 40
6.5
  0
CIRCLE
  5
30CDC
330
A
100
AcDbEntity
  8
D-STR　構造物外形線
100
AcDbCircle
 10
199299.5577231221
 20
12447.59353227235
 30
0.0
 40
6.5
  0
CIRCLE
  5
30CDD
330
A
100
AcDbEntity
  8
D-STR　構造物外形線
100
AcDbCircle
 10
199999.5577231221
 20
12497.59353227235
 30
0.0
 40
6.5
  0
CIRCLE
  5
30CDE
330
A
100
AcDbEntity
  8
D-STR　構造物外形線
100
AcDbCircle
 10
199999.5577231221
 20
12447.59353227235
 30
0.0
 40
6.5
  0
LWPOLYLINE
  5
30CDF
330
A
100
AcDbEntity
  8
D-STR　構造物外形線
100
AcDbPolyline
 90
        6
 70
     0
 43
0.0
 10
201420.5260854933
 20
10452.11246295357
 10
201300.7760854933
 20
10452.11246295357
 10
201300.7760854933
 20
10152.11246295357
 10
201600.7760854933
 20
10152.11246295357
 10
201600.7760854933
 20
10452.11246295357
 10
201481.0260854933
 20
10452.11246295357
  0
LWPOLYLINE
  5
30CE0
330
A
100
AcDbEntity
  8
D-STR　構造物外形線
100
AcDbPolyline
 90
        4
 70
     1
 43
0.0
 10
201250.7760854933
 20
10052.11246295357
 10
201650.7760854933
 20
10052.11246295357
 10
201650.7760854933
 20
10152.11246295357
 10
201250.7760854933
 20
10152.11246295357
  0
LWPOLYLINE
  5
30CE1
330
A
100
AcDbEntity
  8
D-STR　構造物外形線
100
AcDbPolyline
 90
        6
 70
     0
 43
0.0
 10
198569.3077231221
 20
10452.11246295357
 10
198449.5577231221
 20
10452.11246295357
 10
198449.5577231221
 20
10152.11246295357
 10
198749.5577231221
 20
10152.11246295357
 10
198749.5577231221
 20
10452.11246295357
 10
198629.8077231221
 20
10452.11246295357
  0
LWPOLYLINE
  5
30CE2
330
A
100
AcDbEntity
  8
D-STR　構造物外形線
100
AcDbPolyline
 90
        4
 70
     1
 43
0.0
 10
198399.5577231221
 20
10052.11246295357
 10
198799.5577231221
 20
10052.11246295357
 10
198799.5577231221
 20
10152.11246295357
 10
198399.5577231221
 20
10152.11246295357
  0
LWPOLYLINE
  5
30CE3
330
A
100
AcDbEntity
  8
D-STR　構造物外形線
100
AcDbPolyline
 90
        8
 70
     1
 43
0.0
 10
201260.7760854933
 20
11077.11246295355
 10
201640.7760854933
 20
11077.11246295355
 42
0.4142135623730951
 10
201650.7760854933
 20
11087.11246295355
 10
201650.7760854933
 20
11092.11246295355
 42
0.4142135623730951
 10
201640.7760854933
 20
11102.11246295355
 10
201260.7760854933
 20
11102.11246295357
 42
0.4142135623730951
 10
201250.7760854933
 20
11092.11246295358
 10
201250.7760854933
 20
11087.11246295355
 42
0.4142135623730951
  0
LWPOLYLINE
  5
30CE4
330
A
100
AcDbEntity
  8
D-STR　構造物外形線
100
AcDbPolyline
 90
        8
 70
     1
 43
0.0
 10
198909.5577231221
 20
12122.59353227235
 10
198989.5577231221
 20
12122.59353227235
 42
0.4142135623730951
 10
198999.5577231221
 20
12132.59353227235
 10
198999.5577231221
 20
12512.59353227235
 42
0.4142135623730951
 10
198989.5577231221
 20
12522.59353227235
 10
198909.5577231221
 20
12522.59353227232
 42
0.4142135623730477
 10
198899.5577231221
 20
12512.59353227232
 10
198899.5577231221
 20
12132.59353227235
 42
0.4142135623730951
  0
LINE
  5
30CE5
330
A
100
AcDbEntity
  8
D-STR　構造物外形線
100
AcDbLine
 10
198399.5577231221
 20
12325.09353227235
 30
0.0
 11
198399.5577231221
 21
12320.09353227235
 31
0.0
  0
LWPOLYLINE
  5
30CE6
330
A
100
AcDbEntity
  8
D-STR　構造物外形線
100
AcDbPolyline
 90
        8
 70
     1
 43
0.0
 10
199689.5577231221
 20
12122.59353227235
 10
199609.5577231221
 20
12122.59353227235
 42
-0.4142135623730951
 10
199599.5577231221
 20
12132.59353227235
 10
199599.5577231221
 20
12512.59353227235
 42
-0.4142135623730951
 10
199609.5577231221
 20
12522.59353227235
 10
199689.5577231221
 20
12522.59353227232
 42
-0.4142135623730477
 10
199699.5577231221
 20
12512.59353227232
 10
199699.5577231221
 20
12132.59353227235
 42
-0.4142135623730951
  0
MTEXT
  5
30CE7
330
A
100
AcDbEntity
  8
D-DOC　文章(説明、指示、参照事項等)
100
AcDbMText
 10
202554.4090233846
 20
10086.01552843351
 30
0.0
 40
37.5
 41
0.0
 71
     1
 72
     1
  1
仕様\P　合成木材　アインスーパーウッド\P　鋼　　材　JIS規格品　電気亜鉛メッキ\P　塗　　装　ポリウレタン樹脂塗装\P　ボルト類　ステンレス製品\P  地際処理　防食テープ巻
  7
YOKO_GOTHIC
 73
     1
 44
0.9
1001
ACAD
1000
MTEXTBEGIN
1070
    73
1070
     1
1070
    44
1040
0.9
1070
    74
1070
     0
1000
MTEXTEND
  0
DIMENSION
  5
30CE8
330
A
100
AcDbEntity
  8
D-STR-DIM　寸法線、寸法値
100
AcDbDimension
  2
*D6
 10
198599.5577231221
 20
12606.338191424
 30
0.0
 11
198499.5577231221
 21
12638.404591424
 31
0.0
 70
    32
 71
     5
 42
200.0
  3
1-15
100
AcDbAlignedDimension
 13
198399.5577231221
 23
12520.09353227235
 33
0.0
 14
198599.5577231221
 24
12504.09353227235
 34
0.0
100
AcDbRotatedDimension
  0
DIMENSION
  5
30CE9
330
A
100
AcDbEntity
  8
D-STR-DIM　寸法線、寸法値
100
AcDbDimension
  2
*D7
 10
199299.5577231221
 20
12606.338191424
 30
0.0
 11
198949.5577231221
 21
12638.404591424
 31
0.0
 70
    32
 71
     5
 42
700.0
  3
1-15
100
AcDbAlignedDimension
 13
198599.5577231221
 23
12504.09353227235
 33
0.0
 14
199299.5577231221
 24
12504.09353227235
 34
0.0
100
AcDbRotatedDimension
  0
DIMENSION
  5
30CEA
330
A
100
AcDbEntity
  8
D-STR-DIM　寸法線、寸法値
100
AcDbDimension
  2
*D8
 10
199999.5577231221
 20
12606.338191424
 30
0.0
 11
199649.5577231221
 21
12638.404591424
 31
0.0
 70
    32
 71
     5
 42
700.0
  3
1-15
100
AcDbAlignedDimension
 13
199299.5577231221
 23
12504.09353227235
 33
0.0
 14
199999.5577231221
 24
12504.09353227235
 34
0.0
100
AcDbRotatedDimension
  0
DIMENSION
  5
30CEB
330
A
100
AcDbEntity
  8
D-STR-DIM　寸法線、寸法値
100
AcDbDimension
  2
*D9
 10
200199.5577231221
 20
12606.338191424
 30
0.0
 11
200099.5577231222
 21
12638.404591424
 31
0.0
 70
    32
 71
     5
 42
200.0
  3
1-15
100
AcDbAlignedDimension
 13
199999.5577231221
 23
12504.09353227235
 33
0.0
 14
200199.5577231221
 24
12520.09353227235
 34
0.0
100
AcDbRotatedDimension
  0
DIMENSION
  5
30CEC
330
A
100
AcDbEntity
  8
D-STR-DIM　寸法線、寸法値
100
AcDbDimension
  2
*D10
 10
200199.5577231221
 20
12674.5560108129
 30
0.0
 11
199299.5577231221
 21
12706.6224108129
 31
0.0
 70
    32
 71
     5
 42
1800.0
  3
1-15
100
AcDbAlignedDimension
 13
198399.5577231221
 23
12520.09353227235
 33
0.0
 14
200199.5577231221
 24
12520.09353227235
 34
0.0
100
AcDbRotatedDimension
  0
DIMENSION
  5
30CED
330
A
100
AcDbEntity
  8
D-STR-DIM　寸法線、寸法値
100
AcDbDimension
  2
*D11
 10
198949.5577231221
 20
12028.18379060711
 30
0.0
 11
198674.5577231221
 21
12060.25019060711
 31
0.0
 70
    32
 71
     5
 42
550.0
  3
1-15
100
AcDbAlignedDimension
 13
198399.5577231221
 23
12125.09353227235
 33
0.0
 14
198949.5577231221
 24
12122.59353227235
 34
0.0
100
AcDbRotatedDimension
  0
DIMENSION
  5
30CEE
330
A
100
AcDbEntity
  8
D-STR-DIM　寸法線、寸法値
100
AcDbDimension
  2
*D12
 10
199649.5577231221
 20
12028.18379060711
 30
0.0
 11
199299.5577231221
 21
12060.25019060711
 31
0.0
 70
    32
 71
     5
 42
700.0
  3
1-15
100
AcDbAlignedDimension
 13
198949.5577231221
 23
12122.59353227235
 33
0.0
 14
199649.5577231221
 24
12122.59353227235
 34
0.0
100
AcDbRotatedDimension
  0
DIMENSION
  5
30CEF
330
A
100
AcDbEntity
  8
D-STR-DIM　寸法線、寸法値
100
AcDbDimension
  2
*D13
 10
200199.5577231221
 20
12028.18379060711
 30
0.0
 11
199924.5577231221
 21
12060.25019060711
 31
0.0
 70
    32
 71
     5
 42
550.0
  3
1-15
100
AcDbAlignedDimension
 13
199649.5577231221
 23
12122.59353227235
 33
0.0
 14
200199.5577231221
 24
12125.09353227235
 34
0.0
100
AcDbRotatedDimension
  0
DIMENSION
  5
30CF0
330
A
100
AcDbEntity
  8
D-STR-DIM　寸法線、寸法値
100
AcDbDimension
  2
*D14
 10
198300.8725614651
 20
12125.09353227235
 30
0.0
 11
198268.8061614651
 21
12322.59353227238
 31
0.0
 70
    32
 71
     5
 42
395.0
  3
1-15
100
AcDbAlignedDimension
 13
198399.5577231221
 23
12520.09353227235
 33
0.0
 14
198399.5577231221
 24
12125.09353227235
 34
0.0
 50
90.0
100
AcDbRotatedDimension
  0
DIMENSION
  5
30CF1
330
A
100
AcDbEntity
  8
D-STR-DIM　寸法線、寸法値
100
AcDbDimension
  2
*D15
 10
198599.5577231221
 20
11219.38112155622
 30
0.0
 11
198499.5577231221
 21
11251.44752155621
 31
0.0
 70
    32
 71
     5
 42
200.0
  3
1-15
100
AcDbAlignedDimension
 13
198399.5577231221
 23
10952.11246295358
 33
0.0
 14
198599.5577231221
 24
10952.11246295358
 34
0.0
100
AcDbRotatedDimension
  0
DIMENSION
  5
30CF2
330
A
100
AcDbEntity
  8
D-STR-DIM　寸法線、寸法値
100
AcDbDimension
  2
*D16
 10
199299.5577354605
 20
11219.38112155622
 30
0.0
 11
198949.5577292913
 21
11251.44752155621
 31
0.0
 70
    32
 71
     5
 42
700.0000123383361
  3
1-15
100
AcDbAlignedDimension
 13
198599.5577231221
 23
10952.11246295358
 33
0.0
 14
199299.5577354605
 24
10954.2124537983
 34
0.0
100
AcDbRotatedDimension
  0
DIMENSION
  5
30CF3
330
A
100
AcDbEntity
  8
D-STR-DIM　寸法線、寸法値
100
AcDbDimension
  2
*D17
 10
199999.5577354605
 20
11219.38112155622
 30
0.0
 11
199649.5577354605
 21
11251.44752155621
 31
0.0
 70
    32
 71
     5
 42
700.0
  3
1-15
100
AcDbAlignedDimension
 13
199299.5577354605
 23
10954.2124537983
 33
0.0
 14
199999.5577354605
 24
10954.2124537983
 34
0.0
100
AcDbRotatedDimension
  0
DIMENSION
  5
30CF4
330
A
100
AcDbEntity
  8
D-STR-DIM　寸法線、寸法値
100
AcDbDimension
  2
*D18
 10
200199.5577231221
 20
11219.38112155622
 30
0.0
 11
200099.5577292913
 21
11251.44752155621
 31
0.0
 70
    32
 71
     5
 42
199.9999876616639
  3
1-15
100
AcDbAlignedDimension
 13
199999.5577354605
 23
10954.2124537983
 33
0.0
 14
200199.5577231221
 24
10952.11246295358
 34
0.0
100
AcDbRotatedDimension
  0
DIMENSION
  5
30CF5
330
A
100
AcDbEntity
  8
D-STR-DIM　寸法線、寸法値
100
AcDbDimension
  2
*D19
 10
200199.5577231221
 20
11307.68016204421
 30
0.0
 11
199299.5577231221
 21
11339.74656204421
 31
0.0
 70
    32
 71
     5
 42
1800.0
  3
1-15
100
AcDbAlignedDimension
 13
198399.5577231221
 23
10952.11246295358
 33
0.0
 14
200199.5577231221
 24
10952.11246295358
 34
0.0
100
AcDbRotatedDimension
  0
DIMENSION
  5
30CF6
330
A
100
AcDbEntity
  8
D-STR-DIM　寸法線、寸法値
100
AcDbDimension
  2
*D20
 10
198311.6100175507
 20
10552.11246295358
 30
0.0
 11
198279.5436175506
 21
10752.11246295361
 31
0.0
 70
    32
 71
     5
 42
400.0
  3
1-15
100
AcDbAlignedDimension
 13
198399.5577231221
 23
10952.11246295358
 33
0.0
 14
198569.3077231221
 24
10552.11246295358
 34
0.0
 50
90.0
100
AcDbRotatedDimension
  0
DIMENSION
  5
30CF7
330
A
100
AcDbEntity
  8
D-STR-DIM　寸法線、寸法値
100
AcDbDimension
  2
*D21
 10
198311.6100175507
 20
10452.11246295357
 30
0.0
 11
198279.5436175506
 21
10502.11246295361
 31
0.0
 70
    32
 71
     5
 42
100.0
  3
1-15
100
AcDbAlignedDimension
 13
198569.3077231221
 23
10552.11246295358
 33
0.0
 14
198449.5577231221
 24
10452.11246295357
 34
0.0
 50
90.0
100
AcDbRotatedDimension
  0
DIMENSION
  5
30CF8
330
A
100
AcDbEntity
  8
D-STR-DIM　寸法線、寸法値
100
AcDbDimension
  2
*D22
 10
198311.6100175507
 20
10152.11246295357
 30
0.0
 11
198279.5436175506
 21
10302.1124629536
 31
0.0
 70
    32
 71
     5
 42
300.0
  3
1-15
100
AcDbAlignedDimension
 13
198449.5577231221
 23
10452.11246295357
 33
0.0
 14
198399.5577231221
 24
10152.11246295357
 34
0.0
 50
90.0
100
AcDbRotatedDimension
  0
DIMENSION
  5
30CF9
330
A
100
AcDbEntity
  8
D-STR-DIM　寸法線、寸法値
100
AcDbDimension
  2
*D23
 10
198311.6100175507
 20
10052.11246295357
 30
0.0
 11
198279.5436175506
 21
10102.1124629536
 31
0.0
 70
    32
 71
     5
 42
100.0
  3
1-15
100
AcDbAlignedDimension
 13
198399.5577231221
 23
10152.11246295357
 33
0.0
 14
198399.5577231221
 24
10052.11246295357
 34
0.0
 50
90.0
100
AcDbRotatedDimension
  0
DIMENSION
  5
30CFA
330
A
100
AcDbEntity
  8
D-STR-DIM　寸法線、寸法値
100
AcDbDimension
  2
*D24
 10
198311.6100175507
 20
10952.11246295358
 30
0.0
 11
198279.5436175506
 21
11027.1124629536
 31
0.0
 70
    32
 71
     5
 42
150.0
  3
1-15
100
AcDbAlignedDimension
 13
198909.5577231221
 23
11102.11246295357
 33
0.0
 14
198399.5577231221
 24
10952.11246295358
 34
0.0
 50
90.0
100
AcDbRotatedDimension
  0
DIMENSION
  5
30CFB
330
A
100
AcDbEntity
  8
D-STR-DIM　寸法線、寸法値
100
AcDbDimension
  2
*D25
 10
198234.0609990016
 20
10552.11246295358
 30
0.0
 11
198201.9945990016
 21
10827.1124629536
 31
0.0
 70
    32
 71
     5
 42
550.0
  3
1-15
100
AcDbAlignedDimension
 13
198909.5577231221
 23
11102.11246295357
 33
0.0
 14
198569.3077231221
 24
10552.11246295358
 34
0.0
 50
90.0
100
AcDbRotatedDimension
  0
DIMENSION
  5
30CFC
330
A
100
AcDbEntity
  8
D-STR-DIM　寸法線、寸法値
100
AcDbDimension
  2
*D26
 10
198234.0609990016
 20
10052.11246295357
 30
0.0
 11
198201.9945990016
 21
10302.1124629536
 31
0.0
 70
    32
 71
     5
 42
500.0
  3
1-15
100
AcDbAlignedDimension
 13
198569.3077231221
 23
10552.11246295358
 33
0.0
 14
198399.5577231221
 24
10052.11246295357
 34
0.0
 50
90.0
100
AcDbRotatedDimension
  0
DIMENSION
  5
30CFD
330
A
100
AcDbEntity
  8
D-STR-DIM　寸法線、寸法値
100
AcDbDimension
  2
*D27
 10
201650.7760854933
 20
11194.30234893513
 30
0.0
 11
201450.7760854933
 21
11226.36874893513
 31
0.0
 70
    32
 71
     5
 42
400.0
  3
1-15
100
AcDbAlignedDimension
 13
201250.7760854933
 23
11089.61246295357
 33
0.0
 14
201650.7760854933
 24
11087.11246295355
 34
0.0
100
AcDbRotatedDimension
  0
DIMENSION
  5
30CFE
330
A
100
AcDbEntity
  8
D-STR-DIM　寸法線、寸法値
100
AcDbDimension
  2
*D28
 10
201157.6853691398
 20
10952.11246295358
 30
0.0
 11
201125.6189691398
 21
11027.11246295361
 31
0.0
 70
    32
 71
     5
 42
150.0
  3
1-15
100
AcDbAlignedDimension
 13
201260.7760854933
 23
11102.11246295357
 33
0.0
 14
201258.2760854933
 24
10952.11246295358
 34
0.0
 50
90.0
100
AcDbRotatedDimension
  0
DIMENSION
  5
30CFF
330
A
100
AcDbEntity
  8
D-STR-DIM　寸法線、寸法値
100
AcDbDimension
  2
*D29
 10
201157.6853691398
 20
10552.11246295358
 30
0.0
 11
201125.6189691398
 21
10752.11246295361
 31
0.0
 70
    32
 71
     5
 42
400.0
  3
1-15
100
AcDbAlignedDimension
 13
201258.2760854933
 23
10952.11246295358
 33
0.0
 14
201420.5260854933
 24
10552.11246295358
 34
0.0
 50
90.0
100
AcDbRotatedDimension
  0
DIMENSION
  5
30D00
330
A
100
AcDbEntity
  8
D-STR-DIM　寸法線、寸法値
100
AcDbDimension
  2
*D30
 10
201157.6853691398
 20
10452.11246295357
 30
0.0
 11
201125.6189691398
 21
10502.11246295361
 31
0.0
 70
    32
 71
     5
 42
100.0
  3
1-15
100
AcDbAlignedDimension
 13
201420.5260854933
 23
10552.11246295358
 33
0.0
 14
201300.7760854933
 24
10452.11246295357
 34
0.0
 50
90.0
100
AcDbRotatedDimension
  0
DIMENSION
  5
30D01
330
A
100
AcDbEntity
  8
D-STR-DIM　寸法線、寸法値
100
AcDbDimension
  2
*D31
 10
201157.6853691398
 20
10152.11246295357
 30
0.0
 11
201125.6189691398
 21
10302.11246295361
 31
0.0
 70
    32
 71
     5
 42
300.0
  3
1-15
100
AcDbAlignedDimension
 13
201300.7760854933
 23
10452.11246295357
 33
0.0
 14
201250.7760854933
 24
10152.11246295357
 34
0.0
 50
90.0
100
AcDbRotatedDimension
  0
DIMENSION
  5
30D02
330
A
100
AcDbEntity
  8
D-STR-DIM　寸法線、寸法値
100
AcDbDimension
  2
*D32
 10
201157.6853691398
 20
10052.11246295357
 30
0.0
 11
201125.6189691398
 21
10102.11246295361
 31
0.0
 70
    32
 71
     5
 42
100.0
  3
1-15
100
AcDbAlignedDimension
 13
201250.7760854933
 23
10152.11246295357
 33
0.0
 14
201250.7760854933
 24
10052.11246295357
 34
0.0
 50
90.0
100
AcDbRotatedDimension
  0
DIMENSION
  5
30D03
330
A
100
AcDbEntity
  8
D-STR-DIM　寸法線、寸法値
100
AcDbDimension
  2
*D33
 10
201082.4785458305
 20
10552.11246295358
 30
0.0
 11
201050.4121458305
 21
10827.11246295361
 31
0.0
 70
    32
 71
     5
 42
550.0
  3
1-15
100
AcDbAlignedDimension
 13
201260.7760854933
 23
11102.11246295357
 33
0.0
 14
201405.5260854933
 24
10552.11246295358
 34
0.0
 50
90.0
100
AcDbRotatedDimension
  0
DIMENSION
  5
30D04
330
A
100
AcDbEntity
  8
D-STR-DIM　寸法線、寸法値
100
AcDbDimension
  2
*D34
 10
201082.4785458305
 20
10052.11246295357
 30
0.0
 11
201050.4121458305
 21
10302.11246295361
 31
0.0
 70
    32
 71
     5
 42
500.0
  3
1-15
100
AcDbAlignedDimension
 13
201405.5260854933
 23
10552.11246295358
 33
0.0
 14
201250.7760854933
 24
10052.11246295357
 34
0.0
 50
90.0
100
AcDbRotatedDimension
  0
DIMENSION
  5
30D05
330
A
100
AcDbEntity
  8
D-STR-DIM　寸法線、寸法値
100
AcDbDimension
  2
*D35
 10
201600.7760854933
 20
9964.383313834231
 30
0.0
 11
201450.7760854933
 21
9996.44971383423
 31
0.0
 70
    32
 71
     5
 42
300.0
  3
1-15
100
AcDbAlignedDimension
 13
201300.7760854933
 23
10052.11246295357
 33
0.0
 14
201600.7760854933
 24
10052.11246295357
 34
0.0
100
AcDbRotatedDimension
1001
ACAD
1000
DSTYLE
1002
{
1070
     3
1000
300x<>
1002
}
  0
DIMENSION
  5
30D06
330
A
100
AcDbEntity
  8
D-STR-DIM　寸法線、寸法値
100
AcDbDimension
  2
*D36
 10
201300.7760854933
 20
9964.383313834231
 30
0.0
 11
201275.7760854933
 21
9996.44971383423
 31
0.0
 70
    32
 71
     5
 42
50.0
  3
1-15
100
AcDbAlignedDimension
 13
201250.7760854933
 23
10052.11246295357
 33
0.0
 14
201300.7760854933
 24
10052.11246295357
 34
0.0
100
AcDbRotatedDimension
  0
DIMENSION
  5
30D07
330
A
100
AcDbEntity
  8
D-STR-DIM　寸法線、寸法値
100
AcDbDimension
  2
*D37
 10
201650.7760854933
 20
9964.383313834231
 30
0.0
 11
201625.7760854933
 21
9996.44971383423
 31
0.0
 70
    32
 71
     5
 42
50.0
  3
1-15
100
AcDbAlignedDimension
 13
201600.7760854933
 23
10052.11246295357
 33
0.0
 14
201650.7760854933
 24
10052.11246295357
 34
0.0
100
AcDbRotatedDimension
  0
DIMENSION
  5
30D08
330
A
100
AcDbEntity
  8
D-STR-DIM　寸法線、寸法値
100
AcDbDimension
  2
*D38
 10
201650.7760854933
 20
9902.149890546397
 30
0.0
 11
201450.7760854933
 21
9934.216290546396
 31
0.0
 70
    32
 71
     5
 42
400.0
  3
1-15
100
AcDbAlignedDimension
 13
201250.7760854933
 23
10052.11246295357
 33
0.0
 14
201650.7760854933
 24
10052.11246295357
 34
0.0
100
AcDbRotatedDimension
1001
ACAD
1000
DSTYLE
1002
{
1070
     3
1000
400x<>
1002
}
  0
DIMENSION
  5
30D09
330
A
100
AcDbEntity
  8
D-STR-DIM　寸法線、寸法値
100
AcDbDimension
  2
*D39
 10
198749.5577231221
 20
9964.383313834231
 30
0.0
 11
198599.5577231221
 21
9996.44971383423
 31
0.0
 70
    32
 71
     5
 42
300.0
  3
1-15
100
AcDbAlignedDimension
 13
198449.5577231221
 23
10052.11246295357
 33
0.0
 14
198749.5577231221
 24
10052.11246295357
 34
0.0
100
AcDbRotatedDimension
1001
ACAD
1000
DSTYLE
1002
{
1070
     3
1000
300x<>
1002
}
  0
DIMENSION
  5
30D0A
330
A
100
AcDbEntity
  8
D-STR-DIM　寸法線、寸法値
100
AcDbDimension
  2
*D40
 10
198449.5577231221
 20
9964.383313834231
 30
0.0
 11
198424.5577231221
 21
9996.44971383423
 31
0.0
 70
    32
 71
     5
 42
50.0
  3
1-15
100
AcDbAlignedDimension
 13
198399.5577231221
 23
10052.11246295357
 33
0.0
 14
198449.5577231221
 24
10052.11246295357
 34
0.0
100
AcDbRotatedDimension
  0
DIMENSION
  5
30D0B
330
A
100
AcDbEntity
  8
D-STR-DIM　寸法線、寸法値
100
AcDbDimension
  2
*D41
 10
198799.5577231221
 20
9964.383313834231
 30
0.0
 11
198774.5577231221
 21
9996.44971383423
 31
0.0
 70
    32
 71
     5
 42
50.0
  3
1-15
100
AcDbAlignedDimension
 13
198749.5577231221
 23
10052.11246295357
 33
0.0
 14
198799.5577231221
 24
10052.11246295357
 34
0.0
100
AcDbRotatedDimension
  0
DIMENSION
  5
30D0C
330
A
100
AcDbEntity
  8
D-STR-DIM　寸法線、寸法値
100
AcDbDimension
  2
*D42
 10
198799.5577231221
 20
9884.149890546396
 30
0.0
 11
198599.5577231221
 21
9916.216290546396
 31
0.0
 70
    32
 71
     5
 42
400.0
  3
1-15
100
AcDbAlignedDimension
 13
198399.5577231221
 23
10052.11246295357
 33
0.0
 14
198799.5577231221
 24
10052.11246295357
 34
0.0
100
AcDbRotatedDimension
1001
ACAD
1000
DSTYLE
1002
{
1070
     3
1000
400x<>
1002
}
  0
LINE
  5
30D0E
330
A
100
AcDbEntity
  8
D-STR　構造物外形線
100
AcDbLine
 10
198399.5577231221
 20
10052.11246295357
 30
0.0
 11
198445.6509605693
 21
10152.11246295355
 31
0.0
  0
LINE
  5
30D0F
330
A
100
AcDbEntity
  8
D-STR　構造物外形線
100
AcDbLine
 10
198435.0850726714
 20
10129.18960380312
 30
0.0
 11
198424.5191847735
 21
10152.11246295355
 31
0.0
  0
LINE
  5
30D10
330
A
100
AcDbEntity
  8
D-STR　構造物外形線
100
AcDbLine
 10
198410.12361102
 20
10075.035322104
 30
0.0
 11
198420.6894989179
 21
10052.11246295357
 31
0.0
  0
LINE
  5
30D11
330
A
100
AcDbEntity
  8
D-STR　構造物外形線
100
AcDbLine
 10
198435.671549145
 20
10052.11246295357
 30
0.0
 11
198481.7647865921
 21
10152.11246295355
 31
0.0
  0
LINE
  5
30D12
330
A
100
AcDbEntity
  8
D-STR　構造物外形線
100
AcDbLine
 10
198471.1988986943
 20
10129.18960380312
 30
0.0
 11
198460.6330107964
 21
10152.11246295355
 31
0.0
  0
LINE
  5
30D13
330
A
100
AcDbEntity
  8
D-STR　構造物外形線
100
AcDbLine
 10
198446.2374370429
 20
10075.035322104
 30
0.0
 11
198456.8033249408
 21
10052.11246295357
 31
0.0
  0
LINE
  5
30D14
330
A
100
AcDbEntity
  8
D-STR　構造物外形線
100
AcDbLine
 10
198471.785375168
 20
10052.11246295357
 30
0.0
 11
198517.878612615
 21
10152.11246295355
 31
0.0
  0
LINE
  5
30D15
330
A
100
AcDbEntity
  8
D-STR　構造物外形線
100
AcDbLine
 10
198507.3127247172
 20
10129.18960380312
 30
0.0
 11
198496.7468368193
 21
10152.11246295355
 31
0.0
  0
LINE
  5
30D16
330
A
100
AcDbEntity
  8
D-STR　構造物外形線
100
AcDbLine
 10
198482.3512630658
 20
10075.035322104
 30
0.0
 11
198492.9171509637
 21
10052.11246295357
 31
0.0
  0
LINE
  5
30D17
330
A
100
AcDbEntity
  8
D-STR　構造物外形線
100
AcDbLine
 10
198681.2368336292
 20
10052.11246295357
 30
0.0
 11
198727.3300710763
 21
10152.11246295357
 31
0.0
  0
LINE
  5
30D18
330
A
100
AcDbEntity
  8
D-STR　構造物外形線
100
AcDbLine
 10
198716.7641831785
 20
10129.18960380315
 30
0.0
 11
198706.1982952806
 21
10152.11246295357
 31
0.0
  0
LINE
  5
30D19
330
A
100
AcDbEntity
  8
D-STR　構造物外形線
100
AcDbLine
 10
198691.8027215271
 20
10075.035322104
 30
0.0
 11
198702.368609425
 21
10052.11246295357
 31
0.0
  0
LINE
  5
30D1A
330
A
100
AcDbEntity
  8
D-STR　構造物外形線
100
AcDbLine
 10
198717.3506596521
 20
10052.11246295357
 30
0.0
 11
198763.4438970992
 21
10152.11246295357
 31
0.0
  0
LINE
  5
30D1B
330
A
100
AcDbEntity
  8
D-STR　構造物外形線
100
AcDbLine
 10
198752.8780092014
 20
10129.18960380315
 30
0.0
 11
198742.3121213035
 21
10152.11246295357
 31
0.0
  0
LINE
  5
30D1C
330
A
100
AcDbEntity
  8
D-STR　構造物外形線
100
AcDbLine
 10
198727.91654755
 20
10075.035322104
 30
0.0
 11
198738.4824354479
 21
10052.11246295357
 31
0.0
  0
LINE
  5
30D1D
330
A
100
AcDbEntity
  8
D-STR　構造物外形線
100
AcDbLine
 10
198753.464485675
 20
10052.11246295357
 30
0.0
 11
198799.5577231221
 21
10152.11246295357
 31
0.0
  0
LINE
  5
30D1E
330
A
100
AcDbEntity
  8
D-STR　構造物外形線
100
AcDbLine
 10
198788.9918352243
 20
10129.18960380315
 30
0.0
 11
198778.4259473263
 21
10152.11246295357
 31
0.0
  0
LINE
  5
30D1F
330
A
100
AcDbEntity
  8
D-STR　構造物外形線
100
AcDbLine
 10
198764.0303735729
 20
10075.035322104
 30
0.0
 11
198774.5962614707
 21
10052.11246295357
 31
0.0
  0
LINE
  5
30D20
330
A
100
AcDbEntity
  8
D-STR　構造物外形線
100
AcDbLine
 10
201250.7760854933
 20
10052.11246295357
 30
0.0
 11
201296.8693229404
 21
10152.11246295355
 31
0.0
  0
LINE
  5
30D21
330
A
100
AcDbEntity
  8
D-STR　構造物外形線
100
AcDbLine
 10
201286.3034350425
 20
10129.18960380312
 30
0.0
 11
201275.7375471446
 21
10152.11246295355
 31
0.0
  0
LINE
  5
30D22
330
A
100
AcDbEntity
  8
D-STR　構造物外形線
100
AcDbLine
 10
201261.3419733912
 20
10075.035322104
 30
0.0
 11
201271.9078612891
 21
10052.11246295357
 31
0.0
  0
LINE
  5
30D23
330
A
100
AcDbEntity
  8
D-STR　構造物外形線
100
AcDbLine
 10
201286.8899115161
 20
10052.11246295357
 30
0.0
 11
201332.9831489633
 21
10152.11246295355
 31
0.0
  0
LINE
  5
30D24
330
A
100
AcDbEntity
  8
D-STR　構造物外形線
100
AcDbLine
 10
201322.4172610655
 20
10129.18960380312
 30
0.0
 11
201311.8513731676
 21
10152.11246295355
 31
0.0
  0
LINE
  5
30D25
330
A
100
AcDbEntity
  8
D-STR　構造物外形線
100
AcDbLine
 10
201297.4557994141
 20
10075.035322104
 30
0.0
 11
201308.0216873119
 21
10052.11246295357
 31
0.0
  0
LINE
  5
30D26
330
A
100
AcDbEntity
  8
D-STR　構造物外形線
100
AcDbLine
 10
201323.0037375391
 20
10052.11246295357
 30
0.0
 11
201369.0969749862
 21
10152.11246295355
 31
0.0
  0
LINE
  5
30D27
330
A
100
AcDbEntity
  8
D-STR　構造物外形線
100
AcDbLine
 10
201358.5310870884
 20
10129.18960380312
 30
0.0
 11
201347.9651991904
 21
10152.11246295355
 31
0.0
  0
LINE
  5
30D28
330
A
100
AcDbEntity
  8
D-STR　構造物外形線
100
AcDbLine
 10
201333.569625437
 20
10075.035322104
 30
0.0
 11
201344.1355133348
 21
10052.11246295357
 31
0.0
  0
LINE
  5
30D29
330
A
100
AcDbEntity
  8
D-STR　構造物外形線
100
AcDbLine
 10
201532.4551960004
 20
10052.11246295357
 30
0.0
 11
201578.5484334475
 21
10152.11246295357
 31
0.0
  0
LINE
  5
30D2A
330
A
100
AcDbEntity
  8
D-STR　構造物外形線
100
AcDbLine
 10
201567.9825455496
 20
10129.18960380315
 30
0.0
 11
201557.4166576517
 21
10152.11246295357
 31
0.0
  0
LINE
  5
30D2B
330
A
100
AcDbEntity
  8
D-STR　構造物外形線
100
AcDbLine
 10
201543.0210838983
 20
10075.035322104
 30
0.0
 11
201553.5869717961
 21
10052.11246295357
 31
0.0
  0
LINE
  5
30D2C
330
A
100
AcDbEntity
  8
D-STR　構造物外形線
100
AcDbLine
 10
201568.5690220232
 20
10052.11246295357
 30
0.0
 11
201614.6622594704
 21
10152.11246295357
 31
0.0
  0
LINE
  5
30D2D
330
A
100
AcDbEntity
  8
D-STR　構造物外形線
100
AcDbLine
 10
201604.0963715726
 20
10129.18960380315
 30
0.0
 11
201593.5304836746
 21
10152.11246295357
 31
0.0
  0
LINE
  5
30D2E
330
A
100
AcDbEntity
  8
D-STR　構造物外形線
100
AcDbLine
 10
201579.1349099211
 20
10075.035322104
 30
0.0
 11
201589.700797819
 21
10052.11246295357
 31
0.0
  0
LINE
  5
30D2F
330
A
100
AcDbEntity
  8
D-STR　構造物外形線
100
AcDbLine
 10
201604.6828480462
 20
10052.11246295357
 30
0.0
 11
201650.7760854933
 21
10152.11246295357
 31
0.0
  0
LINE
  5
30D30
330
A
100
AcDbEntity
  8
D-STR　構造物外形線
100
AcDbLine
 10
201640.2101975954
 20
10129.18960380315
 30
0.0
 11
201629.6443096975
 21
10152.11246295357
 31
0.0
  0
LINE
  5
30D31
330
A
100
AcDbEntity
  8
D-STR　構造物外形線
100
AcDbLine
 10
201615.2487359441
 20
10075.035322104
 30
0.0
 11
201625.8146238419
 21
10052.11246295357
 31
0.0
  0
LEADER
  5
30D32
330
A
100
AcDbEntity
  8
D-STR-HTXT　旗上げ
100
AcDbLeader
  3
1-15
 73
     0
 74
     0
 75
     1
 40
44.16243654822334
 41
289.1497461928933
 76
     3
 10
200158.5744784597
 20
12397.18183122616
 30
0.0
 10
200255.1711811525
 20
12301.51947068459
 30
0.0
 10
200300.1711811525
 20
12301.51947068459
 30
0.0
340
30D33
  0
MTEXT
  5
30D33
102
{ACAD_REACTORS
330
30D32
102
}
330
A
100
AcDbEntity
  8
D-STR-HTXT　旗上げ
100
AcDbMText
 10
200313.4875811525
 20
12314.83587068459
 30
0.0
 40
37.5
 41
0.0
 71
     7
 72
     1
  1
座板□95x50C
  7
YOKO_GOTHIC
 73
     1
 44
1.0
1001
ACAD
1000
MTEXTBEGIN
1070
    73
1070
     1
1070
    44
1040
1.0
1070
    74
1070
     0
1000
MTEXTEND
  0
LEADER
  5
30D34
330
A
100
AcDbEntity
  8
D-STR-HTXT　旗上げ
100
AcDbLeader
  3
1-15
 73
     0
 74
     0
 75
     1
 40
43.78172588832486
 41
360.1522842639593
 76
     3
 10
199673.5090963443
 20
12144.56737247339
 30
0.0
 10
199863.2178064657
 20
11912.62806052215
 30
0.0
 10
199908.2178064657
 20
11912.62806052215
 30
0.0
340
30D35
  0
MTEXT
  5
30D35
102
{ACAD_REACTORS
330
30D34
102
}
330
A
100
AcDbEntity
  8
D-STR-HTXT　旗上げ
100
AcDbMText
 10
199921.5342064657
 20
11925.94446052215
 30
0.0
 40
37.5
 41
0.0
 71
     7
 72
     1
  1
肘掛け □100x25
  7
YOKO_GOTHIC
 73
     1
 44
1.0
1001
ACAD
1000
MTEXTBEGIN
1070
    73
1070
     1
1070
    44
1040
1.0
1070
    74
1070
     0
1000
MTEXTEND
  0
MTEXT
  5
30D36
330
A
100
AcDbEntity
  8
D-STR-HTXT　旗上げ
100
AcDbMText
 10
199921.5342064657
 20
11857.65248893633
 30
0.0
 40
37.5
 41
0.0
 71
     7
 72
     1
  1
フレーム PL-6.0加工品
  7
YOKO_GOTHIC
 73
     1
 44
1.0
1001
ACAD
1000
MTEXTBEGIN
1070
    73
1070
     1
1070
    44
1040
1.0
1070
    74
1070
     0
1000
MTEXTEND
  0
LEADER
  5
30D37
330
A
100
AcDbEntity
  8
D-STR-HTXT　旗上げ
100
AcDbLeader
  3
1-15
 73
     0
 74
     0
 75
     1
 40
45.11421319796954
 41
311.992385786802
 76
     3
 10
198600.5113458005
 20
10720.79342981642
 30
0.0
 10
198697.1080484933
 20
10625.13106927485
 30
0.0
 10
198742.1080484933
 20
10625.13106927485
 30
0.0
340
30D38
  0
MTEXT
  5
30D38
102
{ACAD_REACTORS
330
30D37
102
}
330
A
100
AcDbEntity
  8
D-STR-HTXT　旗上げ
100
AcDbMText
 10
198755.4244484933
 20
10638.44746927484
 30
0.0
 40
37.5
 41
0.0
 71
     7
 72
     1
  1
柱 φ60.5x3.8
  7
YOKO_GOTHIC
 73
     1
 44
1.0
1001
ACAD
1000
MTEXTBEGIN
1070
    73
1070
     1
1070
    44
1040
1.0
1070
    74
1070
     0
1000
MTEXTEND
  0
LEADER
  5
30D39
330
A
100
AcDbEntity
  8
D-STR-HTXT　旗上げ
100
AcDbLeader
  3
1-15
 73
     0
 74
     0
 75
     1
 40
44.16243654822334
 41
289.1497461928933
 76
     3
 10
199400.1789348865
 20
10926.85658828584
 30
0.0
 10
199530.89418567
 20
10786.55406572764
 30
0.0
 10
199575.89418567
 20
10786.55406572764
 30
0.0
340
30D3A
  0
MTEXT
  5
30D3A
102
{ACAD_REACTORS
330
30D39
102
}
330
A
100
AcDbEntity
  8
D-STR-HTXT　旗上げ
100
AcDbMText
 10
199589.21058567
 20
10799.87046572764
 30
0.0
 40
37.5
 41
0.0
 71
     7
 72
     1
  1
座板□95x50C
  7
YOKO_GOTHIC
 73
     1
 44
1.0
1001
ACAD
1000
MTEXTBEGIN
1070
    73
1070
     1
1070
    44
1040
1.0
1070
    74
1070
     0
1000
MTEXTEND
  0
LEADER
  5
30D3B
330
A
100
AcDbEntity
  8
D-STR-HTXT　旗上げ
100
AcDbLeader
  3
1-15
 73
     0
 74
     0
 75
     1
 40
43.78172588832486
 41
360.1522842639593
 76
     3
 10
199663.9319814598
 20
11040.4202746574
 30
0.0
 10
200057.2683799983
 20
10739.58762644052
 30
0.0
 10
200102.2683799983
 20
10739.58762644052
 30
0.0
340
30D3C
  0
MTEXT
  5
30D3C
102
{ACAD_REACTORS
330
30D3B
102
}
330
A
100
AcDbEntity
  8
D-STR-HTXT　旗上げ
100
AcDbMText
 10
200115.5847799983
 20
10752.90402644052
 30
0.0
 40
37.5
 41
0.0
 71
     7
 72
     1
  1
肘掛け □100x25
  7
YOKO_GOTHIC
 73
     1
 44
1.0
1001
ACAD
1000
MTEXTBEGIN
1070
    73
1070
     1
1070
    44
1040
1.0
1070
    74
1070
     0
1000
MTEXTEND
  0
MTEXT
  5
30D3D
330
A
100
AcDbEntity
  8
D-STR-HTXT　旗上げ
100
AcDbMText
 10
200115.5847799983
 20
10681.18064019037
 30
0.0
 40
37.5
 41
0.0
 71
     7
 72
     1
  1
フレーム PL-6.0加工品
  7
YOKO_GOTHIC
 73
     1
 44
1.0
1001
ACAD
1000
MTEXTBEGIN
1070
    73
1070
     1
1070
    44
1040
1.0
1070
    74
1070
     0
1000
MTEXTEND
  0
LEADER
  5
30D3E
330
A
100
AcDbEntity
  8
D-STR-HTXT　旗上げ
100
AcDbLeader
  3
1-15
 73
     0
 74
     0
 75
     1
 40
43.78172588832486
 41
360.1522842639593
 76
     3
 10
201599.9577418517
 20
11089.85105422469
 30
0.0
 10
201730.6729926352
 20
11226.76121663967
 30
0.0
 10
201775.6729926352
 20
11226.76121663967
 30
0.0
340
30D3F
  0
MTEXT
  5
30D3F
102
{ACAD_REACTORS
330
30D3E
102
}
330
A
100
AcDbEntity
  8
D-STR-HTXT　旗上げ
100
AcDbMText
 10
201788.9893926352
 20
11240.07761663966
 30
0.0
 40
37.5
 41
0.0
 71
     7
 72
     1
  1
肘掛け □100x25
  7
YOKO_GOTHIC
 73
     1
 44
1.0
1001
ACAD
1000
MTEXTBEGIN
1070
    73
1070
     1
1070
    44
1040
1.0
1070
    74
1070
     0
1000
MTEXTEND
  0
MTEXT
  5
30D40
330
A
100
AcDbEntity
  8
D-STR-HTXT　旗上げ
100
AcDbMText
 10
201788.9893926352
 20
11174.91127337338
 30
0.0
 40
37.5
 41
0.0
 71
     7
 72
     1
  1
フレーム PL-6.0加工品
  7
YOKO_GOTHIC
 73
     1
 44
1.0
1001
ACAD
1000
MTEXTBEGIN
1070
    73
1070
     1
1070
    44
1040
1.0
1070
    74
1070
     0
1000
MTEXTEND
  0
LEADER
  5
30D41
330
A
100
AcDbEntity
  8
D-STR-HTXT　旗上げ
100
AcDbLeader
  3
1-15
 73
     0
 74
     0
 75
     1
 40
44.16243654822334
 41
289.1497461928933
 76
     3
 10
201599.9577418517
 20
10940.17249113
 30
0.0
 10
201730.6729926352
 20
11077.08265354497
 30
0.0
 10
201775.6729926352
 20
11077.08265354497
 30
0.0
340
30D42
  0
MTEXT
  5
30D42
102
{ACAD_REACTORS
330
30D41
102
}
330
A
100
AcDbEntity
  8
D-STR-HTXT　旗上げ
100
AcDbMText
 10
201788.9893926352
 20
11090.39905354497
 30
0.0
 40
37.5
 41
0.0
 71
     7
 72
     1
  1
座板□95x50C
  7
YOKO_GOTHIC
 73
     1
 44
1.0
1001
ACAD
1000
MTEXTBEGIN
1070
    73
1070
     1
1070
    44
1040
1.0
1070
    74
1070
     0
1000
MTEXTEND
  0
LEADER
  5
30D43
330
A
100
AcDbEntity
  8
D-STR-HTXT　旗上げ
100
AcDbLeader
  3
1-15
 73
     0
 74
     0
 75
     1
 40
45.11421319796954
 41
311.992385786802
 76
     3
 10
201462.0747472199
 20
10650.39158816374
 30
0.0
 10
201592.7899980034
 20
10787.30175057871
 30
0.0
 10
201637.7899980034
 20
10787.30175057871
 30
0.0
340
30D44
  0
MTEXT
  5
30D44
102
{ACAD_REACTORS
330
30D43
102
}
330
A
100
AcDbEntity
  8
D-STR-HTXT　旗上げ
100
AcDbMText
 10
201651.1063980034
 20
10800.61815057871
 30
0.0
 40
37.5
 41
0.0
 71
     7
 72
     1
  1
柱 φ60.5x3.8
  7
YOKO_GOTHIC
 73
     1
 44
1.0
1001
ACAD
1000
MTEXTBEGIN
1070
    73
1070
     1
1070
    44
1040
1.0
1070
    74
1070
     0
1000
MTEXTEND
  0
MTEXT
  5
30D45
330
A
100
AcDbEntity
  8
D-STR-HTXT　旗上げ
100
AcDbMText
 10
198467.79644678
 20
11779.54344677612
 30
0.0
 40
37.5
 41
0.0
 71
     7
 72
     1
  1
{\L平面図　1：15}
  7
YOKO_GOTHIC
 73
     1
 44
1.0
1001
ACAD
1000
MTEXTBEGIN
1070
    73
1070
     1
1070
    44
1040
1.0
1070
    74
1070
     0
1000
MTEXTEND
  0
MTEXT
  5
30D46
330
A
100
AcDbEntity
  8
D-STR-HTXT　旗上げ
100
AcDbMText
 10
198467.79644678
 20
9761.408036443885
 30
0.0
 40
37.5
 41
0.0
 71
     7
 72
     1
  1
{\L立面図　1：15}
  7
YOKO_GOTHIC
 73
     1
 44
1.0
1001
ACAD
1000
MTEXTBEGIN
1070
    73
1070
     1
1070
    44
1040
1.0
1070
    74
1070
     0
1000
MTEXTEND
  0
MTEXT
  5
30D47
330
A
100
AcDbEntity
  8
D-STR-HTXT　旗上げ
100
AcDbMText
 10
200987.2501799793
 20
9761.408036443885
 30
0.0
 40
37.5
 41
0.0
 71
     7
 72
     1
  1
{\L断面図　1：15}
  7
YOKO_GOTHIC
 73
     1
 44
1.0
1001
ACAD
1000
MTEXTBEGIN
1070
    73
1070
     1
1070
    44
1040
1.0
1070
    74
1070
     0
1000
MTEXTEND
  0
MTEXT
  5
30D48
330
A
100
AcDbEntity
  8
D-DOC　文章(説明、指示、参照事項等)
100
AcDbMText
 10
201878.8212244235
 20
9662.402807798121
 30
0.0
 40
37.5
 41
0.0
 71
     1
 72
     1
  1
※本製品製作工場は、ＩＳＯ９００１：２０００認証工場であること。\P※本製品は、（社）日本公園施設業協会賠償責任保険　加入製品とする。\P※本製品は、（社）日本公園施設業協会SP・SPL表示認定企業の製品とする。　
  7
YOKO_GOTHIC
 73
     1
 44
0.9
1001
ACAD
1000
MTEXTBEGIN
1070
    73
1070
     1
1070
    44
1040
0.9
1070
    74
1070
     0
1000
MTEXTEND
  0
LWPOLYLINE
  5
30D49
330
A
100
AcDbEntity
  8
D-TTL-FRAM　タイトル枠、凡例図枠
100
AcDbPolyline
 90
        4
 70
     1
 43
0.0
 10
202501.4382927177
 20
10129.2501574188
 10
203486.8728239521
 20
10129.2501574188
 10
203486.8728239521
 20
9704.417239365067
 10
202501.4382927177
 20
9704.417239365067
  0
MTEXT
  5
30E4A
330
A
100
AcDbEntity
  8
D-STR-HTXT　旗上げ
100
AcDbMText
 10
197949.373377261
 20
12956.09951177031
 30
0.0
 40
37.5
 41
0.0
 71
     4
 72
     1
  1
平ベンチ 合成木材 (KMB-E-01)
  7
YOKO_GOTHIC
 73
     1
 44
1.0
1001
ACAD
1000
MTEXTBEGIN
1070
    73
1070
     1
1070
    44
1040
1.0
1070
    74
1070
     0
1000
MTEXTEND
  0
LWPOLYLINE
  5
30E4B
330
A
100
AcDbEntity
  8
D-TTL-FRAM　タイトル枠、凡例図枠
100
AcDbPolyline
 90
        4
 70
     1
 43
0.0
 10
197936.6539204713
 20
12987.58949575781
 10
198642.0952353402
 20
12987.58949575781
 10
198642.0952353402
 20
12920.69162895437
 10
197936.6539204713
 20
12920.69162895437
  0
MTEXT
  5
30E4C
330
A
100
AcDbEntity
  8
D-STR-TXT　文字列
100
AcDbMText
 10
198375.7052240462
 20
10552.11246295358
 30
0.0
 40
37.5
 41
0.0
 71
     7
 72
     1
  1
▽G.L.
  7
YOKO_GOTHIC
 73
     1
 44
1.0
1001
ACAD
1000
MTEXTBEGIN
1070
    73
1070
     1
1070
    44
1040
1.0
1070
    74
1070
     0
1000
MTEXTEND
  0
MTEXT
  5
30E4D
330
A
100
AcDbEntity
  8
D-STR-TXT　文字列
100
AcDbMText
 10
201204.8180102613
 20
10552.11246295358
 30
0.0
 40
37.5
 41
0.0
 71
     7
 72
     1
  1
▽G.L.
  7
YOKO_GOTHIC
 73
     1
 44
1.0
1001
ACAD
1000
MTEXTBEGIN
1070
    73
1070
     1
1070
    44
1040
1.0
1070
    74
1070
     0
1000
MTEXTEND
  0
LINE
  5
31174
330
A
100
AcDbEntity
  8
D-STR　構造物外形線
100
AcDbLine
 10
198569.3077231221
 20
10602.11246295357
 30
0.0
 11
198629.8077231221
 21
10602.11246295357
 31
0.0
  0
LINE
  5
31175
330
A
100
AcDbEntity
  8
D-STR　構造物外形線
100
AcDbLine
 10
198569.3077231221
 20
10402.11246295357
 30
0.0
 11
198629.8077231221
 21
10402.11246295357
 31
0.0
  0
LINE
  5
31176
330
A
100
AcDbEntity
  8
D-STR　構造物外形線
100
AcDbLine
 10
198569.3077231221
 20
10552.11246295358
 30
0.0
 11
198171.2711102933
 21
10552.11246295358
 31
0.0
  0
LINE
  5
31177
330
A
100
AcDbEntity
  8
D-STR　構造物外形線
100
AcDbLine
 10
199269.3077231221
 20
10602.11246295357
 30
0.0
 11
199329.8077231221
 21
10602.11246295357
 31
0.0
  0
LINE
  5
31178
330
A
100
AcDbEntity
  8
D-STR　構造物外形線
100
AcDbLine
 10
199969.3077231221
 20
10602.11246295357
 30
0.0
 11
200029.8077231221
 21
10602.11246295357
 31
0.0
  0
LINE
  5
312A4
330
A
100
AcDbEntity
  8
D-STR　構造物外形線
100
AcDbLine
 10
201420.5260854933
 20
10552.11246295358
 30
0.0
 11
201001.9477701365
 21
10552.11246295358
 31
0.0
  0
LINE
  5
312A5
330
A
100
AcDbEntity
  8
D-STR　構造物外形線
100
AcDbLine
 10
198569.3077231221
 20
10584.96994467849
 30
0.0
 11
198586.4502413972
 21
10602.1124629536
 31
0.0
  0
LINE
  5
312A6
330
A
100
AcDbEntity
  8
D-STR　構造物外形線
100
AcDbLine
 10
198569.3077231221
 20
10567.29227514882
 30
0.0
 11
198604.1279109269
 21
10602.11246295357
 31
0.0
  0
LINE
  5
312A7
330
A
100
AcDbEntity
  8
D-STR　構造物外形線
100
AcDbLine
 10
198569.3077231221
 20
10549.61460561915
 30
0.0
 11
198621.8055804566
 21
10602.11246295357
 31
0.0
  0
LINE
  5
312A8
330
A
100
AcDbEntity
  8
D-STR　構造物外形線
100
AcDbLine
 10
198569.3077231221
 20
10531.93693608949
 30
0.0
 11
198629.8077231221
 21
10592.43693608943
 31
0.0
  0
LINE
  5
312A9
330
A
100
AcDbEntity
  8
D-STR　構造物外形線
100
AcDbLine
 10
198569.3077231221
 20
10514.25926655983
 30
0.0
 11
198629.8077231221
 21
10574.75926655977
 31
0.0
  0
LINE
  5
312AA
330
A
100
AcDbEntity
  8
D-STR　構造物外形線
100
AcDbLine
 10
198569.3077231221
 20
10496.58159703017
 30
0.0
 11
198629.8077231221
 21
10557.08159703012
 31
0.0
  0
LINE
  5
312AB
330
A
100
AcDbEntity
  8
D-STR　構造物外形線
100
AcDbLine
 10
198569.3077231221
 20
10478.9039275005
 30
0.0
 11
198629.8077231221
 21
10539.40392750046
 31
0.0
  0
LINE
  5
312AC
330
A
100
AcDbEntity
  8
D-STR　構造物外形線
100
AcDbLine
 10
198569.3077231221
 20
10461.22625797083
 30
0.0
 11
198629.8077231221
 21
10521.72625797082
 31
0.0
  0
LINE
  5
312AD
330
A
100
AcDbEntity
  8
D-STR　構造物外形線
100
AcDbLine
 10
198569.3077231221
 20
10443.54858844117
 30
0.0
 11
198629.8077231221
 21
10504.04858844116
 31
0.0
  0
LINE
  5
312AE
330
A
100
AcDbEntity
  8
D-STR　構造物外形線
100
AcDbLine
 10
198569.3077231221
 20
10425.87091891152
 30
0.0
 11
198629.8077231221
 21
10486.3709189115
 31
0.0
  0
LINE
  5
312AF
330
A
100
AcDbEntity
  8
D-STR　構造物外形線
100
AcDbLine
 10
198569.3077231221
 20
10408.19324938184
 30
0.0
 11
198629.8077231221
 21
10468.69324938183
 31
0.0
  0
LINE
  5
312B0
330
A
100
AcDbEntity
  8
D-STR　構造物外形線
100
AcDbLine
 10
198580.9046062236
 20
10402.11246295357
 30
0.0
 11
198629.8077231221
 21
10451.01557985216
 31
0.0
  0
LINE
  5
312B1
330
A
100
AcDbEntity
  8
D-STR　構造物外形線
100
AcDbLine
 10
198598.5822757532
 20
10402.11246295359
 30
0.0
 11
198629.8077231221
 21
10433.3379103225
 31
0.0
  0
LINE
  5
312B2
330
A
100
AcDbEntity
  8
D-STR　構造物外形線
100
AcDbLine
 10
198616.2599452828
 20
10402.11246295359
 30
0.0
 11
198629.8077231221
 21
10415.66024079284
 31
0.0
  0
LINE
  5
312B3
330
A
100
AcDbEntity
  8
D-STR　構造物外形線
100
AcDbLine
 10
199269.3077231221
 20
10595.5408330216
 30
0.0
 11
199275.8793530541
 21
10602.11246295357
 31
0.0
  0
LINE
  5
312B4
330
A
100
AcDbEntity
  8
D-STR　構造物外形線
100
AcDbLine
 10
199269.3077231221
 20
10577.86316349194
 30
0.0
 11
199293.5570225838
 21
10602.11246295357
 31
0.0
  0
LINE
  5
312B5
330
A
100
AcDbEntity
  8
D-STR　構造物外形線
100
AcDbLine
 10
199269.3077231221
 20
10560.18549396228
 30
0.0
 11
199311.2346921134
 21
10602.11246295357
 31
0.0
  0
LINE
  5
312B6
330
A
100
AcDbEntity
  8
D-STR　構造物外形線
100
AcDbLine
 10
199278.9123616431
 20
10552.11246295358
 30
0.0
 11
199328.9123616431
 21
10602.1124629536
 31
0.0
  0
LINE
  5
312B7
330
A
100
AcDbEntity
  8
D-STR　構造物外形線
100
AcDbLine
 10
199296.5900311728
 20
10552.1124629536
 30
0.0
 11
199329.8077231221
 21
10585.33015490294
 31
0.0
  0
LINE
  5
312B8
330
A
100
AcDbEntity
  8
D-STR　構造物外形線
100
AcDbLine
 10
199314.2677007024
 20
10552.11246295359
 30
0.0
 11
199329.8077231221
 21
10567.65248537327
 31
0.0
  0
LINE
  5
312B9
330
A
100
AcDbEntity
  8
D-STR　構造物外形線
100
AcDbLine
 10
199969.3077231221
 20
10588.43405183506
 30
0.0
 11
199982.9861342407
 21
10602.1124629536
 31
0.0
  0
LINE
  5
312BA
330
A
100
AcDbEntity
  8
D-STR　構造物外形線
100
AcDbLine
 10
199969.3077231221
 20
10570.75638230538
 30
0.0
 11
200000.6638037703
 21
10602.1124629536
 31
0.0
  0
LINE
  5
312BB
330
A
100
AcDbEntity
  8
D-STR　構造物外形線
100
AcDbLine
 10
199969.3077231221
 20
10553.07871277568
 30
0.0
 11
200018.3414733
 21
10602.1124629536
 31
0.0
  0
LINE
  5
312BC
330
A
100
AcDbEntity
  8
D-STR　構造物外形線
100
AcDbLine
 10
199986.0191428297
 20
10552.11246295359
 30
0.0
 11
200029.8077231221
 21
10595.901043246
 31
0.0
  0
LINE
  5
312BD
330
A
100
AcDbEntity
  8
D-STR　構造物外形線
100
AcDbLine
 10
200003.6968123593
 20
10552.11246295359
 30
0.0
 11
200029.8077231221
 21
10578.22337371635
 31
0.0
  0
LINE
  5
312BE
330
A
100
AcDbEntity
  8
D-STR　構造物外形線
100
AcDbLine
 10
200021.374481889
 20
10552.11246295359
 30
0.0
 11
200029.8077231221
 21
10560.5457041867
 31
0.0
  0
LINE
  5
312BF
330
A
100
AcDbEntity
  8
D-STR　構造物外形線
100
AcDbLine
 10
201420.5260854933
 20
10602.11246295382
 30
0.0
 11
201481.0260854933
 21
10602.11246295382
 31
0.0
  0
LINE
  5
312C0
330
A
100
AcDbEntity
  8
D-STR　構造物外形線
100
AcDbLine
 10
201420.5260854933
 20
10402.11246295382
 30
0.0
 11
201481.0260854933
 21
10402.11246295382
 31
0.0
  0
LINE
  5
312C1
330
A
100
AcDbEntity
  8
D-STR　構造物外形線
100
AcDbLine
 10
201420.5260854933
 20
10584.96994467874
 30
0.0
 11
201437.6686037684
 21
10602.11246295385
 31
0.0
  0
LINE
  5
312C2
330
A
100
AcDbEntity
  8
D-STR　構造物外形線
100
AcDbLine
 10
201420.5260854933
 20
10567.29227514906
 30
0.0
 11
201455.3462732981
 21
10602.11246295382
 31
0.0
  0
LINE
  5
312C3
330
A
100
AcDbEntity
  8
D-STR　構造物外形線
100
AcDbLine
 10
201420.5260854933
 20
10549.61460561939
 30
0.0
 11
201473.0239428278
 21
10602.11246295382
 31
0.0
  0
LINE
  5
312C4
330
A
100
AcDbEntity
  8
D-STR　構造物外形線
100
AcDbLine
 10
201420.5260854933
 20
10531.93693608974
 30
0.0
 11
201481.0260854932
 21
10592.43693608968
 31
0.0
  0
LINE
  5
312C5
330
A
100
AcDbEntity
  8
D-STR　構造物外形線
100
AcDbLine
 10
201420.5260854933
 20
10514.25926656008
 30
0.0
 11
201481.0260854932
 21
10574.75926656002
 31
0.0
  0
LINE
  5
312C6
330
A
100
AcDbEntity
  8
D-STR　構造物外形線
100
AcDbLine
 10
201420.5260854933
 20
10496.58159703042
 30
0.0
 11
201481.0260854932
 21
10557.08159703036
 31
0.0
  0
LINE
  5
312C7
330
A
100
AcDbEntity
  8
D-STR　構造物外形線
100
AcDbLine
 10
201420.5260854933
 20
10478.90392750075
 30
0.0
 11
201481.0260854933
 21
10539.40392750071
 31
0.0
  0
LINE
  5
312C8
330
A
100
AcDbEntity
  8
D-STR　構造物外形線
100
AcDbLine
 10
201420.5260854933
 20
10461.22625797108
 30
0.0
 11
201481.0260854933
 21
10521.72625797106
 31
0.0
  0
LINE
  5
312C9
330
A
100
AcDbEntity
  8
D-STR　構造物外形線
100
AcDbLine
 10
201420.5260854933
 20
10443.54858844142
 30
0.0
 11
201481.0260854933
 21
10504.04858844141
 31
0.0
  0
LINE
  5
312CA
330
A
100
AcDbEntity
  8
D-STR　構造物外形線
100
AcDbLine
 10
201420.5260854933
 20
10425.87091891176
 30
0.0
 11
201481.0260854933
 21
10486.37091891175
 31
0.0
  0
LINE
  5
312CB
330
A
100
AcDbEntity
  8
D-STR　構造物外形線
100
AcDbLine
 10
201420.5260854933
 20
10408.19324938209
 30
0.0
 11
201481.0260854933
 21
10468.69324938207
 31
0.0
  0
LINE
  5
312CC
330
A
100
AcDbEntity
  8
D-STR　構造物外形線
100
AcDbLine
 10
201432.1229685947
 20
10402.11246295382
 30
0.0
 11
201481.0260854933
 21
10451.0155798524
 31
0.0
  0
LINE
  5
312CD
330
A
100
AcDbEntity
  8
D-STR　構造物外形線
100
AcDbLine
 10
201449.8006381244
 20
10402.11246295384
 30
0.0
 11
201481.0260854933
 21
10433.33791032275
 31
0.0
  0
LINE
  5
312CE
330
A
100
AcDbEntity
  8
D-STR　構造物外形線
100
AcDbLine
 10
201467.478307654
 20
10402.11246295384
 30
0.0
 11
201481.0260854933
 21
10415.66024079309
 31
0.0
  0
LEADER
  5
312D3
330
A
100
AcDbEntity
  8
D-STR-HTXT　旗上げ
100
AcDbLeader
  3
1-15
 73
     0
 74
     0
 75
     1
 40
46.82741116751269
 41
283.8197969543147
 76
     3
 10
201462.0747472199
 20
10532.37995856263
 30
0.0
 10
201592.7899980034
 20
10669.29012097761
 30
0.0
 10
201637.7899980034
 20
10669.29012097761
 30
0.0
340
312D4
  0
MTEXT
  5
312D4
102
{ACAD_REACTORS
330
312D3
102
}
330
A
100
AcDbEntity
  8
D-STR-HTXT　旗上げ
100
AcDbMText
 10
201651.1063980034
 20
10682.60652097761
 30
0.0
 40
37.5
 41
0.0
 71
     7
 72
     1
  1
防食テープ巻
  7
YOKO_GOTHIC
 73
     1
 44
1.0
1001
ACAD
1000
MTEXTBEGIN
1070
    73
1070
     1
1070
    44
1040
1.0
1070
    74
1070
     0
1000
MTEXTEND
  0
LINE
  5
312F1
330
A
100
AcDbEntity
  8
D-STR　構造物外形線
100
AcDbLine
 10
201420.5260854934
 20
10308.61246295357
 30
0.0
 11
201420.5260854934
 21
10295.61246295358
 31
0.0
  0
LINE
  5
312F3
330
A
100
AcDbEntity
  8
D-STR　構造物外形線
100
AcDbLine
 10
201481.0260854933
 20
10295.61246295358
 30
0.0
 11
201481.0260854933
 21
10308.61246295357
 31
0.0
  0
VIEWPORT
  5
8B7
102
{ACAD_XDICTIONARY
360
31E16
102
}
330
B
100
AcDbEntity
 67
     1
  8
0
  6
Continuous
370
     0
100
AcDbViewport
 10
5.613749947134904
 20
3.902083231708196
 30
0.0
 40
12.36801978644423
 41
9.533417101575722
 68
     1
 69
     1
 12
5.613749947134904
 22
3.902083231708196
 13
0.0
 23
0.0
 14
10.0
 24
10.0
 15
10.0
 25
10.0
 16
0.0
 26
0.0
 36
1.0
 17
0.0
 27
0.0
 37
0.0
 42
50.0
 43
0.0
 44
0.0
 45
9.533417101575722
 50
0.0
 51
0.0
 72
   100
 90
    32800
  1

281
     0
 71
     1
 74
     0
110
0.0
120
0.0
130
0.0
111
1.0
121
0.0
131
0.0
112
0.0
122
1.0
132
0.0
 79
     0
146
0.0
  0
VIEWPORT
  5
8BA
102
{ACAD_XDICTIONARY
360
31E18
102
}
330
B
100
AcDbEntity
 67
     1
  8
D-STR-DIM　寸法線、寸法値
  6
Continuous
370
     0
100
AcDbViewport
 10
5.61374996590802
 20
3.902083250481312
 30
0.0
 40
8.981999945452834
 41
6.243333200770099
 68
     2
 69
     2
 12
10500.00005355105
 22
7425.000039231964
 13
0.0
 23
0.0
 14
1.0
 24
1.0
 15
0.0
 25
0.0
 16
0.0
 26
0.0
 36
1.0
 17
0.0
 27
0.0
 37
0.0
 42
50.0
 43
0.0
 44
0.0
 45
15032.18305239522
 50
0.0
 51
0.0
 72
   100
 90
    32800
  1

281
     0
 71
     1
 74
     0
110
0.0
120
0.0
130
0.0
111
1.0
121
0.0
131
0.0
112
0.0
122
1.0
132
0.0
 79
     0
146
0.0
  0
ENDSEC
  0
SECTION
  2
OBJECTS
  0
DICTIONARY
  5
19
330
0
100
AcDbDictionary
281
     1
  3
ACAD_COLOR
350
7C5
  3
ACAD_GROUP
350
1A
  3
ACAD_LAYOUT
350
1E
  3
ACAD_MATERIAL
350
7C4
  3
ACAD_MLINESTYLE
350
1B
  3
ACAD_PLOTSETTINGS
350
22
  3
ACAD_PLOTSTYLENAME
350
1F
  3
ACAD_TABLESTYLE
350
7C6
  3
ACAD_VISUALSTYLE
350
31D84
  3
AcadDim
350
9C12
  3
AcDbVariableDictionary
350
88F
  3
DWGPROPS
350
31E10
  0
DICTIONARY
  5
31D9F
330
7
100
AcDbDictionary
280
     1
281
     1
  0
DICTIONARY
  5
891
330
2
100
AcDbDictionary
280
     1
281
     1
  3
ACAD_LAYERFILTERS
360
266D7
  3
ACAD_LAYERSTATES
360
8BE
  3
ACLYDICTIONARY
360
266D6
  0
DICTIONARY
  5
FFF
330
FFE
100
AcDbDictionary
280
     1
281
     1
  3
ADSK_XREC_LAYER_RECONCILED
360
1000
  0
DICTIONARY
  5
1002
330
1001
100
AcDbDictionary
280
     1
281
     1
  3
ADSK_XREC_LAYER_RECONCILED
360
1003
  0
DICTIONARY
  5
101A
330
1019
100
AcDbDictionary
280
     1
281
     1
  3
ADSK_XREC_LAYER_RECONCILED
360
101B
  0
DICTIONARY
  5
1DC35
330
1DC34
100
AcDbDictionary
280
     1
281
     1
  3
ADSK_XREC_LAYER_RECONCILED
360
1DC36
  0
DICTIONARY
  5
1DC38
330
1DC37
100
AcDbDictionary
280
     1
281
     1
  3
ADSK_XREC_LAYER_RECONCILED
360
1DC39
  0
DICTIONARY
  5
1DC3B
330
1DC3A
100
AcDbDictionary
280
     1
281
     1
  3
ADSK_XREC_LAYER_RECONCILED
360
1DC3C
  0
DICTIONARY
  5
1DC3E
330
1DC3D
100
AcDbDictionary
280
     1
281
     1
  3
ADSK_XREC_LAYER_RECONCILED
360
1DC3F
  0
DICTIONARY
  5
1DC41
330
1DC40
100
AcDbDictionary
280
     1
281
     1
  3
ADSK_XREC_LAYER_RECONCILED
360
1DC42
  0
DICTIONARY
  5
1DC44
330
1DC43
100
AcDbDictionary
280
     1
281
     1
  3
ADSK_XREC_LAYER_RECONCILED
360
1DC45
  0
DICTIONARY
  5
C53
330
A
100
AcDbDictionary
280
     1
281
     1
  3
ACAD_SORTENTS
360
C54
  0
DICTIONARY
  5
249E2
330
249E1
100
AcDbDictionary
280
     1
281
     1
  3
ACAD_SORTENTS
360
249E3
  0
DICTIONARY
  5
31E16
330
8B7
100
AcDbDictionary
280
     1
281
     1
  3
ACAD_XREC_ROUNDTRIP
360
31E17
  0
DICTIONARY
  5
31E18
330
8BA
100
AcDbDictionary
280
     1
281
     1
  3
ACAD_XREC_ROUNDTRIP
360
31E19
  0
DICTIONARY
  5
7C5
102
{ACAD_REACTORS
330
19
102
}
330
19
100
AcDbDictionary
281
     1
  0
DICTIONARY
  5
1A
102
{ACAD_REACTORS
330
19
102
}
330
19
100
AcDbDictionary
281
     1
  0
DICTIONARY
  5
1E
102
{ACAD_REACTORS
330
19
102
}
330
19
100
AcDbDictionary
281
     1
  3
Layout1
350
21
  3
Model
350
20
  0
DICTIONARY
  5
7C4
102
{ACAD_REACTORS
330
19
102
}
330
19
100
AcDbDictionary
281
     1
  3
ByBlock
350
31D83
  3
ByLayer
350
31D82
  3
Global
350
A2FC
  0
DICTIONARY
  5
1B
102
{ACAD_REACTORS
330
19
102
}
330
19
100
AcDbDictionary
281
     1
  3
Standard
350
1C
  0
DICTIONARY
  5
22
102
{ACAD_REACTORS
330
19
102
}
330
19
100
AcDbDictionary
281
     1
  0
ACDBDICTIONARYWDFLT
  5
1F
102
{ACAD_REACTORS
330
19
102
}
330
19
100
AcDbDictionary
281
     1
  3
Normal
350
1D
100
AcDbDictionaryWithDefault
340
1D
  0
DICTIONARY
  5
7C6
102
{ACAD_REACTORS
330
19
102
}
330
19
100
AcDbDictionary
281
     1
  3
Standard
350
7C7
  0
DICTIONARY
  5
31D84
102
{ACAD_REACTORS
330
19
102
}
330
19
100
AcDbDictionary
281
     1
  3
2dWireframe
350
31D8A
  3
3D Hidden
350
31D8C
  3
3dWireframe
350
31D8B
  3
Basic
350
31D89
  3
Brighten
350
31D90
  3
ColorChange
350
31D94
  3
Conceptual
350
31D8D
  3
Dim
350
31D8F
  3
Facepattern
350
31D93
  3
Flat
350
31D85
  3
FlatWithEdges
350
31D86
  3
Gouraud
350
31D87
  3
GouraudWithEdges
350
31D88
  3
Linepattern
350
31D92
  3
Realistic
350
31D8E
  3
Thicken
350
31D91
  0
XRECORD
  5
9C12
102
{ACAD_REACTORS
330
19
102
}
330
19
100
AcDbXrecord
280
     1
 90
   990106
  3

 60
     0
 61
     0
 62
     1
 63
     3
 64
     0
 65
     0
 66
     0
 67
     3
 68
     1
 69
     0
 70
     0
 71
     0
 72
     0
 40
0.0
170
     0
  0
DICTIONARY
  5
88F
102
{ACAD_REACTORS
330
19
102
}
330
19
100
AcDbDictionary
281
     1
  3
CTABLESTYLE
350
890
  3
DIMASSOC
350
8CC
  3
INDEXCTL
350
31DCD
  3
PROJECTNAME
350
8CD
  3
SORTENTS
350
31179
  0
XRECORD
  5
31E10
102
{ACAD_REACTORS
330
19
102
}
330
19
100
AcDbXrecord
280
     1
  1
DWGPROPS COOKIE
  2

  3

  4

  6

  7

  8
owner
  9

300
=
301
=
302
=
303
=
304
=
305
=
306
=
307
=
308
=
309
=
 40
0.5142953587962963
 41
2455426.923043982
 42
2457163.694106077
  1

 90
        0
  0
DICTIONARY
  5
266D7
102
{ACAD_REACTORS
330
891
102
}
330
891
100
AcDbDictionary
281
     1
  0
DICTIONARY
  5
8BE
102
{ACAD_REACTORS
330
891
102
}
330
891
100
AcDbDictionary
281
     1
  0
DICTIONARY
  5
266D6
102
{ACAD_REACTORS
330
891
102
}
330
891
100
AcDbDictionary
281
     1
1001
ACAD
1000
<All
  0
XRECORD
  5
1000
102
{ACAD_REACTORS
330
FFF
102
}
330
FFF
100
AcDbXrecord
280
     1
290
     1
  0
XRECORD
  5
1003
102
{ACAD_REACTORS
330
1002
102
}
330
1002
100
AcDbXrecord
280
     1
290
     1
  0
XRECORD
  5
101B
102
{ACAD_REACTORS
330
101A
102
}
330
101A
100
AcDbXrecord
280
     1
290
     1
  0
XRECORD
  5
1DC36
102
{ACAD_REACTORS
330
1DC35
102
}
330
1DC35
100
AcDbXrecord
280
     1
290
     1
  0
XRECORD
  5
1DC39
102
{ACAD_REACTORS
330
1DC38
102
}
330
1DC38
100
AcDbXrecord
280
     1
290
     1
  0
XRECORD
  5
1DC3C
102
{ACAD_REACTORS
330
1DC3B
102
}
330
1DC3B
100
AcDbXrecord
280
     1
290
     1
  0
XRECORD
  5
1DC3F
102
{ACAD_REACTORS
330
1DC3E
102
}
330
1DC3E
100
AcDbXrecord
280
     1
290
     1
  0
XRECORD
  5
1DC42
102
{ACAD_REACTORS
330
1DC41
102
}
330
1DC41
100
AcDbXrecord
280
     1
290
     1
  0
XRECORD
  5
1DC45
102
{ACAD_REACTORS
330
1DC44
102
}
330
1DC44
100
AcDbXrecord
280
     1
290
     1
  0
SORTENTSTABLE
  5
C54
102
{ACAD_REACTORS
330
C53
102
}
330
C53
100
AcDbSortentsTable
330
A
  0
SORTENTSTABLE
  5
249E3
102
{ACAD_REACTORS
330
249E2
102
}
330
249E2
100
AcDbSortentsTable
330
249E1
  0
XRECORD
  5
31E17
102
{ACAD_REACTORS
330
31E16
102
}
330
31E16
100
AcDbXrecord
280
     1
102
SHADEPLOT
 70
     0
  0
XRECORD
  5
31E19
102
{ACAD_REACTORS
330
31E18
102
}
330
31E18
100
AcDbXrecord
280
     1
102
SHADEPLOT
 70
     0
  0
LAYOUT
  5
21
102
{ACAD_XDICTIONARY
360
8C0
102
}
102
{ACAD_REACTORS
330
1E
102
}
330
1E
100
AcDbPlotSettings
  1

  2
RICOH imagio MP C3300 RPCS
  4
A4
  6

 40
5.873749732971191
 41
5.873747825622558
 42
5.873748779296875
 43
5.873748779296875
 44
209.9733276367187
 45
296.9259948730469
 46
0.0
 47
0.0
 48
0.0
 49
0.0
140
0.0
141
0.0
142
1.0
143
1.0
 70
     0
 72
     0
 73
     1
 74
     0
  7
CAD製図基準案.ctb
 75
     0
147
1.0
148
0.0
149
0.0
100
AcDbLayout
  1
Layout1
 70
     0
 71
     1
 10
-0.2312499519408218
 20
-0.2312499894870548
 11
11.45874984621063
 21
8.035416452903447
 12
0.0
 22
0.0
 32
0.0
 14
1.122749993181603
 24
0.7804166500962629
 34
0.0
 15
10.10474993863444
 25
7.023749850866362
 35
0.0
146
0.0
 13
0.0
 23
0.0
 33
0.0
 16
1.0
 26
0.0
 36
0.0
 17
0.0
 27
1.0
 37
0.0
 76
     0
330
B
331
8B7
1001
ACAD_PSEXT
1000
RICOH imagio MP C3300 RPCS
1000
RICOH imagio MP C3300 RPCS
1000
192.168.2.250@imagio_Neo_C325@
1000
RPCS Driver (Windows 2000/XP/Server 2003/Vista)
1070
     0
  0
LAYOUT
  5
20
102
{ACAD_XDICTIONARY
360
31E11
102
}
102
{ACAD_REACTORS
330
1E
102
}
330
1E
100
AcDbPlotSettings
  1

  2
RICOH imagio MP C3300 RPCS
  4
A3
  6

 40
5.873749732971191
 41
5.873747825622558
 42
5.873748779296875
 43
5.873748779296875
 44
296.9259948730469
 45
419.9466552734374
 46
-5.910751819610595
 47
-5.900420665740966
 48
197558.685732472
 49
8898.08549668135
140
203858.685732472
141
13353.08549668135
142
1.0
143
15.0
 70
  3236
 72
     1
 73
     1
 74
     4
  7
monochro_V-nas仕様.ctb
 75
     0
147
0.0640131304962466
148
-197558.685732472
149
-8898.08549668135
100
AcDbLayout
  1
Model
 70
     0
 71
     0
 10
0.0
 20
0.0
 11
0.0
 21
0.0
 12
0.0
 22
0.0
 32
0.0
 14
0.0
 24
0.0
 34
0.0
 15
0.0
 25
0.0
 35
0.0
146
0.0
 13
0.0
 23
0.0
 33
0.0
 16
0.0
 26
0.0
 36
0.0
 17
0.0
 27
0.0
 37
0.0
 76
     0
330
A
331
31D80
1001
ACAD_PSEXT
1000
RICOH imagio MP C3300 RPCS
1000
RICOH imagio MP C3300 RPCS
1000
IP_192.168.2.250
1000
RPCS Driver (Windows 2000/XP/Server 2003/2008/Vista/7)
1070
     0
  0
MATERIAL
  5
31D83
102
{ACAD_XDICTIONARY
360
31E1E
102
}
102
{ACAD_REACTORS
330
7C4
102
}
330
7C4
100
AcDbMaterial
  1
ByBlock
  0
MATERIAL
  5
31D82
102
{ACAD_XDICTIONARY
360
31E1C
102
}
102
{ACAD_REACTORS
330
7C4
102
}
330
7C4
100
AcDbMaterial
  1
ByLayer
  0
MATERIAL
  5
A2FC
102
{ACAD_XDICTIONARY
360
31E1A
102
}
102
{ACAD_REACTORS
330
7C4
102
}
330
7C4
100
AcDbMaterial
  1
Global
  0
MLINESTYLE
  5
1C
102
{ACAD_REACTORS
330
1B
102
}
330
1B
100
AcDbMlineStyle
  2
STANDARD
 70
     0
  3

 62
     0
 51
90.0
 52
90.0
 71
     2
 49
0.5
 62
   256
  6
BYLAYER
 49
-0.5
 62
   256
  6
BYLAYER
  0
ACDBPLACEHOLDER
  5
1D
102
{ACAD_REACTORS
330
1F
102
}
330
1F
  0
TABLESTYLE
  5
7C7
102
{ACAD_XDICTIONARY
360
31E14
102
}
102
{ACAD_REACTORS
330
7C6
102
}
330
7C6
100
AcDbTableStyle
  3
Standard
 70
     0
 71
     0
 40
0.06
 41
0.06
280
     0
281
     0
  7
Standard
140
0.18
170
     2
 62
     0
 63
     7
283
     0
274
    -2
284
     1
 64
     0
275
    -2
285
     1
 65
     0
276
    -2
286
     1
 66
     0
277
    -2
287
     1
 67
     0
278
    -2
288
     1
 68
     0
279
    -2
289
     1
 69
     0
  7
Standard
140
0.25
170
     5
 62
     0
 63
     7
283
     0
274
    -2
284
     1
 64
     0
275
    -2
285
     1
 65
     0
276
    -2
286
     1
 66
     0
277
    -2
287
     1
 67
     0
278
    -2
288
     1
 68
     0
279
    -2
289
     1
 69
     0
  7
Standard
140
0.18
170
     5
 62
     0
 63
     7
283
     0
274
    -2
284
     1
 64
     0
275
    -2
285
     1
 65
     0
276
    -2
286
     1
 66
     0
277
    -2
287
     1
 67
     0
278
    -2
288
     1
 68
     0
279
    -2
289
     1
 69
     0
  0
VISUALSTYLE
  5
31D8A
102
{ACAD_REACTORS
330
31D84
102
}
330
31D84
100
AcDbVisualStyle
  2
2dWireframe
 70
     4
 71
     0
 72
     2
 73
     0
 90
        0
 40
-0.6
 41
-30.0
 62
     5
 63
     7
 74
     1
 91
        4
 64
     7
 65
   257
 75
     1
175
     1
 42
1.0
 92
        0
 66
   257
 43
1.0
 76
     1
 77
     6
 78
     2
 67
     7
 79
     5
170
     0
171
     0
290
     0
174
     0
 93
        1
 44
0.0
173
     0
291
     0
 45
0.0
1001
ACAD
1000
AcDbSavedByObjectVersion
1070
     0
  0
VISUALSTYLE
  5
31D8C
102
{ACAD_REACTORS
330
31D84
102
}
330
31D84
100
AcDbVisualStyle
  2
3D Hidden
 70
     6
 71
     1
 72
     2
 73
     2
 90
        0
 40
-0.6
 41
-30.0
 62
     5
 63
     7
 74
     2
 91
        2
 64
     7
 65
   257
 75
     2
175
     1
 42
40.0
 92
        0
 66
   257
 43
1.0
 76
     1
 77
     6
 78
     2
 67
     7
 79
     3
170
     0
171
     0
290
     0
174
     0
 93
        1
 44
0.0
173
     0
291
     0
 45
0.0
1001
ACAD
1000
AcDbSavedByObjectVersion
1070
     0
  0
VISUALSTYLE
  5
31D8B
102
{ACAD_REACTORS
330
31D84
102
}
330
31D84
100
AcDbVisualStyle
  2
3dWireframe
 70
     5
 71
     0
 72
     2
 73
     0
 90
        0
 40
-0.6
 41
-30.0
 62
     5
 63
     7
 74
     1
 91
        4
 64
     7
 65
   257
 75
     1
175
     1
 42
1.0
 92
        0
 66
   257
 43
1.0
 76
     1
 77
     6
 78
     2
 67
     7
 79
     5
170
     0
171
     0
290
     0
174
     0
 93
        1
 44
0.0
173
     0
291
     0
 45
0.0
1001
ACAD
1000
AcDbSavedByObjectVersion
1070
     0
  0
VISUALSTYLE
  5
31D89
102
{ACAD_REACTORS
330
31D84
102
}
330
31D84
100
AcDbVisualStyle
  2
Basic
 70
     7
 71
     1
 72
     0
 73
     1
 90
        0
 40
-0.6
 41
-30.0
 62
     5
 63
     7
 74
     0
 91
        4
 64
     7
 65
   257
 75
     1
175
     1
 42
1.0
 92
        8
 66
     7
 43
1.0
 76
     1
 77
     6
 78
     2
 67
     7
 79
     5
170
     0
171
     0
290
     0
174
     0
 93
        1
 44
0.0
173
     0
291
     1
 45
0.0
1001
ACAD
1000
AcDbSavedByObjectVersion
1070
     0
  0
VISUALSTYLE
  5
31D90
102
{ACAD_REACTORS
330
31D84
102
}
330
31D84
100
AcDbVisualStyle
  2
Brighten
 70
    12
 71
     2
 72
     2
 73
     0
 90
        0
 40
-0.6
 41
-30.0
 62
     5
 63
     7
 74
     1
 91
        4
 64
     7
 65
   257
 75
     1
175
     1
 42
1.0
 92
        8
 66
     7
 43
1.0
 76
     1
 77
     6
 78
     2
 67
     7
 79
     5
170
     0
171
     0
290
     0
174
     0
 93
        1
 44
50.0
173
     0
291
     1
 45
0.0
1001
ACAD
1000
AcDbSavedByObjectVersion
1070
     0
  0
VISUALSTYLE
  5
31D94
102
{ACAD_REACTORS
330
31D84
102
}
330
31D84
100
AcDbVisualStyle
  2
ColorChange
 70
    16
 71
     2
 72
     2
 73
     3
 90
        0
 40
-0.6
 41
-30.0
 62
     5
 63
     8
 74
     1
 91
        4
 64
     7
 65
   257
 75
     1
175
     1
 42
1.0
 92
        8
 66
     8
 43
1.0
 76
     1
 77
     6
 78
     2
 67
     7
 79
     5
170
     0
171
     0
290
     0
174
     0
 93
        1
 44
0.0
173
     0
291
     1
 45
0.0
1001
ACAD
1000
AcDbSavedByObjectVersion
1070
     0
  0
VISUALSTYLE
  5
31D8D
102
{ACAD_REACTORS
330
31D84
102
}
330
31D84
100
AcDbVisualStyle
  2
Conceptual
 70
     9
 71
     3
 72
     2
 73
     0
 90
        0
 40
-0.6
 41
-30.0
 62
     5
 63
     7
 74
     2
 91
        2
 64
     7
 65
   257
 75
     1
175
     1
 42
40.0
 92
        8
 66
     7
 43
1.0
 76
     1
 77
     6
 78
     2
 67
     7
 79
     3
170
     0
171
     0
290
     0
174
     0
 93
        1
 44
0.0
173
     0
291
     0
 45
0.0
1001
ACAD
1000
AcDbSavedByObjectVersion
1070
     0
  0
VISUALSTYLE
  5
31D8F
102
{ACAD_REACTORS
330
31D84
102
}
330
31D84
100
AcDbVisualStyle
  2
Dim
 70
    11
 71
     2
 72
     2
 73
     0
 90
        0
 40
-0.6
 41
-30.0
 62
     5
 63
     7
 74
     1
 91
        4
 64
     7
 65
   257
 75
     1
175
     1
 42
1.0
 92
        8
 66
     7
 43
1.0
 76
     1
 77
     6
 78
     2
 67
     7
 79
     5
170
     0
171
     0
290
     0
174
     0
 93
        1
 44
-50.0
173
     0
291
     1
 45
0.0
1001
ACAD
1000
AcDbSavedByObjectVersion
1070
     0
  0
VISUALSTYLE
  5
31D93
102
{ACAD_REACTORS
330
31D84
102
}
330
31D84
100
AcDbVisualStyle
  2
Facepattern
 70
    15
 71
     2
 72
     2
 73
     0
 90
        0
 40
-0.6
 41
-30.0
 62
     5
 63
     7
 74
     1
 91
        4
 64
     7
 65
   257
 75
     1
175
     1
 42
1.0
 92
        8
 66
     7
 43
1.0
 76
     1
 77
     6
 78
     2
 67
     7
 79
     5
170
     0
171
     0
290
     0
174
     0
 93
        1
 44
0.0
173
     0
291
     1
 45
0.0
1001
ACAD
1000
AcDbSavedByObjectVersion
1070
     0
  0
VISUALSTYLE
  5
31D85
102
{ACAD_REACTORS
330
31D84
102
}
330
31D84
100
AcDbVisualStyle
  2
Flat
 70
     0
 71
     2
 72
     1
 73
     1
 90
        2
 40
-0.6
 41
30.0
 62
     5
 63
     7
 74
     0
 91
        4
 64
     7
 65
   257
 75
     1
175
     1
 42
1.0
 92
        8
 66
     7
 43
1.0
 76
     1
 77
     6
 78
     2
 67
     7
 79
     5
170
     0
171
     0
290
     0
174
     0
 93
       13
 44
0.0
173
     0
291
     1
 45
0.0
1001
ACAD
1000
AcDbSavedByObjectVersion
1070
     0
  0
VISUALSTYLE
  5
31D86
102
{ACAD_REACTORS
330
31D84
102
}
330
31D84
100
AcDbVisualStyle
  2
FlatWithEdges
 70
     1
 71
     2
 72
     1
 73
     1
 90
        2
 40
-0.6
 41
30.0
 62
     5
 63
     7
 74
     1
 91
        4
 64
     7
 65
   257
 75
     1
175
     1
 42
1.0
 92
        0
 66
   257
 43
1.0
 76
     1
 77
     6
 78
     2
 67
     7
 79
     5
170
     0
171
     0
290
     0
174
     0
 93
       13
 44
0.0
173
     0
291
     1
 45
0.0
1001
ACAD
1000
AcDbSavedByObjectVersion
1070
     0
  0
VISUALSTYLE
  5
31D87
102
{ACAD_REACTORS
330
31D84
102
}
330
31D84
100
AcDbVisualStyle
  2
Gouraud
 70
     2
 71
     2
 72
     2
 73
     1
 90
        2
 40
-0.6
 41
30.0
 62
     5
 63
     7
 74
     0
 91
        4
 64
     7
 65
   257
 75
     1
175
     1
 42
1.0
 92
        0
 66
     7
 43
1.0
 76
     1
 77
     6
 78
     2
 67
     7
 79
     5
170
     0
171
     0
290
     0
174
     0
 93
       13
 44
0.0
173
     0
291
     1
 45
0.0
1001
ACAD
1000
AcDbSavedByObjectVersion
1070
     0
  0
VISUALSTYLE
  5
31D88
102
{ACAD_REACTORS
330
31D84
102
}
330
31D84
100
AcDbVisualStyle
  2
GouraudWithEdges
 70
     3
 71
     2
 72
     2
 73
     1
 90
        2
 40
-0.6
 41
30.0
 62
     5
 63
     7
 74
     1
 91
        4
 64
     7
 65
   257
 75
     1
175
     1
 42
1.0
 92
        0
 66
   257
 43
1.0
 76
     1
 77
     6
 78
     2
 67
     7
 79
     5
170
     0
171
     0
290
     0
174
     0
 93
       13
 44
0.0
173
     0
291
     1
 45
0.0
1001
ACAD
1000
AcDbSavedByObjectVersion
1070
     0
  0
VISUALSTYLE
  5
31D92
102
{ACAD_REACTORS
330
31D84
102
}
330
31D84
100
AcDbVisualStyle
  2
Linepattern
 70
    14
 71
     2
 72
     2
 73
     0
 90
        0
 40
-0.6
 41
-30.0
 62
     5
 63
     7
 74
     1
 91
        4
 64
     7
 65
   257
 75
     7
175
     7
 42
1.0
 92
        8
 66
     7
 43
1.0
 76
     1
 77
     6
 78
     2
 67
     7
 79
     5
170
     0
171
     0
290
     0
174
     0
 93
        1
 44
0.0
173
     0
291
     1
 45
0.0
1001
ACAD
1000
AcDbSavedByObjectVersion
1070
     0
  0
VISUALSTYLE
  5
31D8E
102
{ACAD_REACTORS
330
31D84
102
}
330
31D84
100
AcDbVisualStyle
  2
Realistic
 70
     8
 71
     2
 72
     2
 73
     0
 90
        0
 40
-0.6
 41
-30.0
 62
     5
 63
     7
 74
     1
 91
        0
 64
     7
 65
   257
 75
     1
175
     1
 42
1.0
 92
        8
 66
     8
 43
1.0
 76
     1
 77
     6
 78
     2
 67
     7
 79
     5
170
     0
171
     0
290
     0
174
     0
 93
       13
 44
0.0
173
     0
291
     0
 45
0.0
1001
ACAD
1000
AcDbSavedByObjectVersion
1070
     0
  0
VISUALSTYLE
  5
31D91
102
{ACAD_REACTORS
330
31D84
102
}
330
31D84
100
AcDbVisualStyle
  2
Thicken
 70
    13
 71
     2
 72
     2
 73
     0
 90
        0
 40
-0.6
 41
-30.0
 62
     5
 63
     7
 74
     1
 91
        4
 64
     7
 65
   257
 75
     1
175
     1
 42
1.0
 92
       12
 66
     7
 43
1.0
 76
     1
 77
     6
 78
     2
 67
     7
 79
     5
170
     0
171
     0
290
     0
174
     0
 93
        1
 44
0.0
173
     0
291
     1
 45
0.0
1001
ACAD
1000
AcDbSavedByObjectVersion
1070
     0
  0
DICTIONARYVAR
  5
890
102
{ACAD_REACTORS
330
88F
102
}
330
88F
100
DictionaryVariables
280
     0
  1
STANDARD
  0
DICTIONARYVAR
  5
8CC
102
{ACAD_REACTORS
330
88F
102
}
330
88F
100
DictionaryVariables
280
     0
  1
1
  0
DICTIONARYVAR
  5
31DCD
102
{ACAD_REACTORS
330
88F
102
}
330
88F
100
DictionaryVariables
280
     0
  1
0
  0
DICTIONARYVAR
  5
8CD
102
{ACAD_REACTORS
330
88F
102
}
330
88F
100
DictionaryVariables
280
     0
  1

  0
DICTIONARYVAR
  5
31179
102
{ACAD_REACTORS
330
88F
102
}
330
88F
100
DictionaryVariables
280
     0
  1
96
  0
DICTIONARY
  5
8C0
330
21
100
AcDbDictionary
280
     1
281
     1
  3
ACAD_XREC_ROUNDTRIP
360
31E13
  3
ADSK_XREC_LAYOUTTHUMBNAIL
360
8C1
  0
DICTIONARY
  5
31E11
330
20
100
AcDbDictionary
280
     1
281
     1
  3
ACAD_XREC_ROUNDTRIP
360
31E12
  0
DICTIONARY
  5
31E1E
330
31D83
100
AcDbDictionary
280
     1
281
     1
  3
ACAD_XREC_ROUNDTRIP
360
31E1F
  0
DICTIONARY
  5
31E1C
330
31D82
100
AcDbDictionary
280
     1
281
     1
  3
ACAD_XREC_ROUNDTRIP
360
31E1D
  0
DICTIONARY
  5
31E1A
330
A2FC
100
AcDbDictionary
280
     1
281
     1
  3
ACAD_XREC_ROUNDTRIP
360
31E1B
  0
DICTIONARY
  5
31E14
330
7C7
100
AcDbDictionary
280
     1
281
     1
  3
ACAD_XREC_ROUNDTRIP
360
31E15
  0
XRECORD
  5
31E13
102
{ACAD_REACTORS
330
8C0
102
}
330
8C0
100
AcDbXrecord
280
     1
102
SHADEPLOT
 70
     0
102
SHADEPLOTRESLEVEL
 70
     2
102
SHADEPLOTCUSTOMDPI
 70
   300
  0
XRECORD
  5
8C1
102
{ACAD_REACTORS
330
8C0
102
}
330
8C0
100
AcDbXrecord
280
     1
310
28000000B40000007F00000001000800000000004C590000000000000000000000010000000000000000000000000000FFFFFF000000000000000000000000000000000000000000000000000000000000000000330000006600000099000000CC000000FF00000000330000333300006633000099330000CC330000FF3300
310
0000660000336600006666000099660000CC660000FF66000000990000339900006699000099990000CC990000FF99000000CC000033CC000066CC000099CC0000CCCC0000FFCC000000FF000033FF000066FF000099FF0000CCFF0000FFFF000000003300330033006600330099003300CC003300FF003300003333003333
310
33006633330099333300CC333300FF33330000663300336633006666330099663300CC663300FF66330000993300339933006699330099993300CC993300FF99330000CC330033CC330066CC330099CC3300CCCC3300FFCC330000FF330033FF330066FF330099FF3300CCFF3300FFFF330000006600330066006600660099
310
006600CC006600FF00660000336600333366006633660099336600CC336600FF33660000666600336666006666660099666600CC666600FF66660000996600339966006699660099996600CC996600FF99660000CC660033CC660066CC660099CC6600CCCC6600FFCC660000FF660033FF660066FF660099FF6600CCFF6600
310
FFFF660000009900330099006600990099009900CC009900FF00990000339900333399006633990099339900CC339900FF33990000669900336699006666990099669900CC669900FF66990000999900339999006699990099999900CC999900FF99990000CC990033CC990066CC990099CC9900CCCC9900FFCC990000FF99
310
0033FF990066FF990099FF9900CCFF9900FFFF99000000CC003300CC006600CC009900CC00CC00CC00FF00CC000033CC003333CC006633CC009933CC00CC33CC00FF33CC000066CC003366CC006666CC009966CC00CC66CC00FF66CC000099CC003399CC006699CC009999CC00CC99CC00FF99CC0000CCCC0033CCCC0066CC
310
CC0099CCCC00CCCCCC00FFCCCC0000FFCC0033FFCC0066FFCC0099FFCC00CCFFCC00FFFFCC000000FF003300FF006600FF009900FF00CC00FF00FF00FF000033FF003333FF006633FF009933FF00CC33FF00FF33FF000066FF003366FF006666FF009966FF00CC66FF00FF66FF000099FF003399FF006699FF009999FF00CC
310
99FF00FF99FF0000CCFF0033CCFF0066CCFF0099CCFF00CCCCFF00FFCCFF0000FFFF0033FFFF0066FFFF0099FFFF00CCFFFF00FFFFFF00000000000D0D0D001A1A1A00282828003535350043434300505050005D5D5D006B6B6B00787878008686860093939300A1A1A100AEAEAE00BBBBBB00C9C9C900D6D6D600E4E4E400
310
F1F1F100FFFFFF0000000000000000000000000000000000000000000000000000000000000000000000000000000000F5F5F5F5F5F5F5F5F5F5F5F5F5F5F5F5F5F5F5F5F5F5F5F5F5F5F5F5F5F5F5F5F5F5F5F5F5F5F5F5F5F5F5F5F5F5F5F5F5F5F5F5F5F5F5F5F5F5F5F5F5F5F5F5F5F5F5F5F5F5F5F5F5F5F5F5F5F5F5
310
F5F5F5F5F5F5F5F5F5F5F5F5F5F5F5F5F5F5F5F5F5F5F5F5F5F5F5F5F5F5F5F5F5F5F5F5F5F5F5F5F5F5F5F5F5F5F5F5F5F5F5F5F5F5F5F5F5F5F5F5F5F5F5F5F5F5F5F5F5F5F5F5F5F5F5F5F5F5F5F5F5F5F5F5F5F5F5F5F5F5F5F5F5F5F5F5F5F5F5F5F5F5E2E2E2E2E2E2E2E2E2E2E2E2E2E2E2E2E2E2E2E2E2E2E2E2E2
310
E2E2E2E2E2E2E2E2E2E2E2E2E2E2E2E2E2E2E2E2E2E2E2E2E2E2E2E2E2E2E2E2E2E2E2E2E2E2E2E2E2E2E2E2E2E2E2E2E2E2E2E2E2E2E2E2E2E2E2E2E2E2E2E2E2E2E2E2E2E2E2E2E2E2E2E2E2E2E2E2E2E2E2E2E2E2E2E2E2E2E2E2E2E2E2E2E2E2E2E2E2E2E2E2E2E2E2E2E2E2E2E2E2E2E2E2E2E2E2E2E2E2E2E2E2E2E2
310
E2E2E2E2E2E2E2E2E2E2E2E2E2E2E2E2E2E2E2E2E2E2E2E2E2E2F5F5E2E2E2E2E2E2E2E2E2E2E2E2E2E2E2E2E2E2E2E2E2E2E2E2E2E2E2E2E2E2E2E2E2E2E2E2E2E2E2E2E2E2E2E2E2E2E2E2E2E2E2E2E2E2E2E2E2E2E2E2E2E2E2E2E2E2E2E2E2E2E2E2E2E2E2E2E2E2E2E2E2E2E2E2E2E2E2E2E2E2E2E2E2E2E2E2E2E2E2
310
E2E2E2E2E2E2E2E2E2E2E2E2E2E2E2E2E2E2E2E2E2E2E2E2E2E2E2E2E2E2E2E2E2E2E2E2E2E2E2E2E2E2E2E2E2E2E2E2E2E2E2E2E2E2E2E2E2E2E2E2E2E2E2E2E2E2E2E2E2E2E2E2E2E2E2E2E2E2E2F5F5E2E2E2E2E2E2E2E2E2E2E2E2E2E2E2E2E2E2E2E2E2E2E2E2E2E2E2E2E2E2E2E2E2E2E2E2E2E2E2E2E2E2E2E2E2E2
310
E2E2E2E2E2E2E2E2E2E2E2E2E2E2E2E2E2E2E2E2E2E2E2E2E2E2E2E2E2E2E2E2E2E2E2E2E2E2E2E2E2E2E2E2E2E2E2E2E2E2E2E2E2E2E2E2E2E2E2E2E2E2E2E2E2E2E2E2E2E2E2E2E2E2E2E2E2E2E2E2E2E2E2E2E2E2E2E2E2E2E2E2E2E2E2E2E2E2E2E2E2E2E2E2E2E2E2E2E2E2E2E2E2E2E2E2E2E2E2E2E2E2E2E2E2E2E2
310
E2E2E2E2E2F5F5E2E2E2F5F5F5F5F5F5F5F5E2E2E2E2E2E2E2E2E2F5F5F5F5F5F5F5F5F5F5F5F5F5F5F5F5E2E2E2E2E2E2E2E2E2F5F5F5F5F5F5F5F5F5F5F5F5F5F5F5E2E2E2E2E2E2E2E2E2F5F5F5F5F5F5F5F5F5F5F5F5F5F5F5F5E2E2E2E2E2E2E2E2F5F5F5F5F5F5F5F5F5F5F5F5F5F5F5F5E2E2E2E2E2E2E2E2E2F5F5
310
F5F5F5F5F5F5F5F5F5F5F5F5F5E2E2E2E2E2E2E2E2E2F5F5F5F5F5F5F5F5F5F5F5F5F5F5F5F5E2E2E2E2E2E2E2E2E2F5F5F5F5F5F5F5F5E2E2E2F5F5E2E2E2F5E2E2E2E2E2E2E2E2E2E2E2E2E2E2E2E2E2E2E2E2E2E2E2E2E2E2E2E2E2E2E2E2E2E2E2E2E2E2E2E2E2E2E2E2E2E2E2E2E2E2E2E2E2E2E2E2E2E2E2E2E2E2E2
310
E2E2E2E2E2E2E2E2E2E2E2E2E2E2E2E2E2E2E2E2E2E2E2E2E2E2E2E2E2E2E2E2E2E2E2E2E2E2E2E2E2E2E2E2E2E2E2E2E2E2E2E2E2E2E2E2E2E2E2E2E2E2E2E2E2E2E2E2E2E2E2E2E2E2E2E2E2E2E2E2E2E2E2E2E2E2E2E2E2E2E2E2E2E2E2E2E2E2E2E2E2E2E2E2E2E2E2F5E2E2E2F5F5E2E2E2F5E2E2E2E2E2E2E2E2E2E2
310
E2E2E2E2E2E2E2E2E2E2E2E2E2E2E2E2E2E2E2E2E2E2E2E2E2E2E2E2E2E2E2E2E2E2E2E2E2E2E2E2E2E2E2E2E2E2E2E2E2E2E2E2E2E2E2E2E2E2E2E2E2E2E2E2E2E2E2E2E2E2E2E2E2E2E2E2E2E2E2E2E2E2E2E2E2E2E2E2E2E2E2E2E2E2E2E2E2E2E2E2E2E2E2E2E2E2E2E2E2E2E2E2E2E2E2E2E2E2E2E2E2E2E2E2E2E2E2
310
E2E2E2E2E2E2E2E2E2E2E2E2E2E2E2E2E2E2E2E2E2E2E2E2E2E2E2E2E2E2E2E2E2F5E2E2E2F5F5E2E2E2F5E2E2E2E2E2E2E2E2E2E2E2E2E2E2E2E2E2E2E2E2E2E2E2E2E2E2E2E2E2E2E2E2E2E2E2E2E2E2E2E2E2E2E2E2E2E2E2E2E2E2E2E2E2E2E2E2E2E2E2E2E2E2E2E2E2E2E2E2E2E2E2E2E2E2E2E2E2E2E2E2E2E2E2E2
310
E2E2E2E2E2E2E2E2E2E2E2E2E2E2E2E2E2E2E2E2E2E2E2E2E2E2E2E2E2E2E2E2E2E2E2E2E2E2E2E2E2E2E2E2E2E2E2E2E2E2E2E2E2E2E2E2E2E2E2E2E2E2E2E2E2E2E2E2E2E2E2E2E2E2E2E2E2E2E2E2E2E2E2E2E2E2F5E2E2E2F5F5E2E2E2F5E2E2E2E2E2E2E2E2E2E2E2E2E2E2E2E2E2E2E2E2E2E2E2E2E2E2E2E2E2E2E2
310
E2E2E2E2E2E2E2E2E2E2E2E2E2E2E2E2E2E2E2E2E2E2E2E2E2E2E2E2E2E2E2E2E2E2E2E2E2E2E2E2E2E2E2E2E2E2E2E2E2E2E2E2E2E2E2E2E2E2E2E2E2E2E2E2E2E2E2E2E2E2E2E2E2E2E2E2E2E2E2E2E2E2E2E2E2E2E2E2E2E2E2E2E2E2E2E2E2E2E2E2E2E2E2E2E2E2E2E2E2E2E2E2E2E2E2E2E2E2E2E2E2E2E2E2E2E2E2
310
E2E2E2E2E2E2E2E2E2E2E2E2F5E2E2E2F5F5E2E2E2F5E2E2E2E2E2E2E2E2E2E2E2E2E2E2E2E2E2E2E2E2E2E2E2E2E2E2E2E2E2E2E2E2E2E2E2E2E2E2E2E2E2E2E2E2E2E2E2E2E2E2E2E2E2E2E2E2E2E2E2E2E2E2E2E2E2E2E2E2E2E2E2E2E2E2E2E2E2E2E2E2E2E2E2E2E2E2E2E2E2E2E2E2E2E2E2E2E2E2E2E2E2E2E2E2E2
310
E2E2E2E2E2E2E2E2E2E2E2E2E2E2E2E2E2E2E2E2E2E2E2E2E2E2E2E2E2E2E2E2E2E2E2E2E2E2E2E2E2E2E2E2E2E2E2E2E2E2E2E2E2E2E2E2E2E2E2E2E2E2E2E2E2F5E2E2E2F5F5E2E2E2F5E2E2E2E2E2E2E2E2E2E2E2E2E2E2E2E2E2E2E2E2E2E2E2E2E2E2E2E2E2E2E2E2E2E2E2E2E2E2E2E2E2E2E2E2E2E2E2E2E2E2E2E2
310
E2E2E2E2E2E2E2E2E2E2E2E2E2E2E2E2E2E2E2E2E2E2E2E2E2E2E2E2E2E2E2E2E2E2E2E2E2E2E2E2E2E2E2E2E2E2E2E2E2E2E2E2E2E2E2E2E2E2E2E2E2E2E2E2E2E2E2E2E2E2E2E2E2E2E2E2E2E2E2E2E2E2E2E2E2E2E2E2E2E2E2E2E2E2E2E2E2E2E2E2E2E2E2E2E2E2E2E2E2E2E2E2E2E2E2E2E2E2F5E2E2E2F5F5E2E2E2
310
F5E2E2E2E2E2E2E2E2E2E2E2E2E2E2E2E2E2E2E2E2E2E2E2E2E2E2E2E2E2E2E2E2E2E2E2E2E2E2E2E2E2E2E2E2E2E2E2E2E2E2E2E2E2E2E2E2E2E2E2E2E2E2E2E2E2E2E2E2E2E2E2E2E2E2E2E2E2E2E2E2E2E2E2E2E2E2E2E2E2E2E2E2E2E2E2E2E2E2E2E2E2E2E2E2E2E2E2E2E2E2E2E2E2E2E2E2E2E2E2E2E2E2E2E2E2E2
310
E2E2E2E2E2E2E2E2E2E2E2E2E2E2E2E2E2E2E2E2E2E2E2E2E2E2E2E2E2E2E2E2E2E2E2E2E2E2E2E2E2E2E2E2F5E2E2E2F5F5E2E2E2E2E2E2E2E2E2E2E2E2E2E2E2E2E2E2E2E2E2E2E2E2E2E2E2E2E2E2E2E2E2E2E2E2E2E2E2E2E2E2E2E2E2E2E2E2E2E2E2E2E2E2E2E2E2E2E2E2E2E2E2E2E2E2E2E2E2E2E2E2E2E2E2E2E2
310
E2E2E2E2E2E2E2E2E2E2E2E2E2E2E2E2E2E2E2E2E2E2E2E2E2E2E2E2E2E2E2E2E2E2E2E2E2E2E2E2E2E2E2E2E2E2E2E2E2E2E2E2E2E2E2E2E2E2E2E2E2E2E2E2E2E2E2E2E2E2E2E2E2E2E2E2E2E2E2E2E2E2E2E2E2E2E2E2E2E2E2E2E2E2E2E2E2E2E2E2E2F5F5E2E2E2E2E2E2E2E2E2E2E2E2E2E2E2E2E2E2E2E2E2E2E2E2
310
E2E2E2E2E2E2E2E2E2E2E2E2E2E2E2E2E2E2E2E2E2E2E2E2E2E2E2E2E2E2E2E2E2E2E2E2E2E2E2E2E2E2E2E2E2E2E2E2E2E2E2E2E2E2E2E2E2E2E2E2E2E2E2E2E2E2E2E2E2E2E2E2E2E2E2E2E2E2E2E2E2E2E2E2E2E2E2E2E2E2E2E2E2E2E2E2E2E2E2E2E2E2E2E2E2E2E2E2E2E2E2E2E2E2E2E2E2E2E2E2E2E2E2E2E2E2E2
310
E2E2E2E2E2E2E2E2E2E2E2E2E2E2E2E2E2E2E2E2E2E2E2E2E2E2E2F5F5E2E2E2E2E2E2E2E2E2E2E2E2E2E2E2E2E2E2E2E2E2E2E2E2E2E2E2E2E2E2E2E2E2E2E2E2E2E2E2E2E2E2E2E2E2E2E2E2E2E2E2E2E2E2E2E2E2E2E2E2E2E2E2E2E2E2E2E2E2E2E2E2E2E2E2E2E2E2E2E2E2E2E2E2E2E2E2E2E2E2E2E2E2E2E2E2E2E2
310
E2E2E2E2E2E2E2E2E2E2E2E2E2E2E2E2E2E2E2E2E2E2E2E2E2E2E2E2E2E2E2E2E2E2E2E2E2E2E2E2E2E2E2E2E2E2E2E2E2E2E2E2E2E2E2E2E2E2E2E2E2E2E2E2E2E2E2E2E2E2E2E2E2E2E2E2E2E2E2E2F5F5E2E2E2E2E2E2E2E2E2E2E2E2E2E2E2E2E2E2E2E2F5F5F5F5F5F5F5F5F5F5F5F5F5F5F5F5F5F5F5F5F5F5F5F5F5
310
F5F5F5F5F5F5F5F5F5F5F5F5F5F5F5F5F5F5F5F5F5F5F5F5F5F5F5F5F5F5F5F5F5F5F5F5F5F5F5F5F5F5F5F5F5F5F5F5F5F5F5F5F5F5F5F5F5F5F5F5F5F5F5F5F5F5F5F5F5F5F5F5F5F5F5F5F5F5F5F5F5F5F5F5F5F5F5F5F5F5F5F5F5F5F5F5F5F5F5F5F5F5F5F5F5F5F5F5F5F5F5F5F5E2E2E2E2E2E2E2E2E2E2E2E2E2E2
310
E2E2E2E2E2E2F5F5E2E2E2E2E2E2E2E2E2E2E2E2E2E2E2E2E2E2E2E2F5E2DCDCDCDCDCDCDCDCDCDCDCDCDCDCDCDCDCDCDCDCDCDCDCDCDCDCDCDCDCDCDCDCDCDCDCDCDCDCDCDCDCDCDCDCDCDCDCDCDCDCDCDCDCDCDCDCDCDCDCDCDCDCDCDCDCDCDCDCDCDCDCDCDCDCDCDCDCDCDCDCDCDCDCDCDCDCDCDCDCDCDCDCDCDCDCDCDC
310
DCDCDCDCDCDCDCDCDCDCDCDCDCDCDCDCDCDCDCDCDCDCDCDCDCDCDCDCDCDCDCDCDCDCDCDCDCE2F5E2E2E2E2E2E2E2E2E2E2E2E2E2E2E2E2E2E2E2E2F5F5E2E2E2E2E2E2E2E2E2E2E2E2E2E2E2E2E2E2E2E2F5E2DCE2E2E2E2E2E2E2E2E2E2E2E2E2E2E2E2E2E2E2E2E2E2E2E2E2E2E2E2E2E2E2E2E2E2E2E2E2E2E2E2E2E2E2
310
E2E2E2E2E2E2E2E2E2E2E2E2E2E2E2E2E2E2E2E2E2E2E2E2E2E2E2E2E2E2E2E2E2E2E2E2E2E2E2E2E2E2E2E2E2E2E2E2E2E2E2E2E2E2E2E2E2E2E2E2E2E2E2E2E2E2E2E2E2E2E2E2E2E2E2E2E2E2E2E2E2E2E2E2E2E2E2E2E2DCE2F5E2E2E2E2E2E2E2E2E2E2E2E2E2E2E2E2E2E2E2E2F5F5E2E2E2E2E2E2E2E2E2E2E2E2E2
310
E2E2E2E2E2E2E2F5E2DCE2E2E2E2E2E2E2E2E2E2E2E2E2E2E2E2E2E2E2E2E2E2E2E2E2E2E2E2E2E2E2E2E2E2E2E2E2E2E2E2E2E2E2E2E2E2E2E2E2E2E2E2E2E2E2E2E2E2E2E2E2E2E2E2E2E2E2E2E2E2E2E2E2E2E2E2E2E2E2E2E2E2E2E2E2E2E2E2E2E2E2E2E2E2E2E2E2E2E2E2E2E2E2E2E2E2E2E2E2E2E2E2E2E2E2E2E2
310
E2E2E2E2E2E2E2E2E2E2E2E2E2E2E2DCE2F5E2E2E2E2E2E2E2E2E2E2E2E2E2E2E2E2E2E2E2E2F5F5E2E2E2E2E2E2E2E2E2E2E2E2E2E2E2E2E2E2E2E2F5E2DCE2E2E2E2E2E2E2E2E2E2E2E2E2E2E2E2E2E2E2E2E2E2E2E2E2E2E2E2E2E2E2E2E2E2E2E2E2E2E2E2E2E2E2E2E2E2E2E2E2E2E2E2E2E2E2E2E2E2E2E2E2E2E2E2
310
E2E2E2E2E2E2E2E2E2E2E2E2E2E2E2E2E2E2E2E2E2E2E2E2E2E2E2E2E2E2E2E2E2E2E2E2E2E2E2E2E2E2E2E2E2E2E2E2E2E2E2E2E2E2E2E2E2E2E2E2E2E2E2E2E2E2E2E2DCE2F5E2E2E2E2E2E2E2E2E2E2E2E2E2E2E2E2E2E2E2E2F5F5E2E2E2F5E2E2E2E2E2E2E2E2E2E2E2E2E2E2E2E2F5E2DCE2E2E2E2E2E2E2E2E2E2E2
310
E2E2E2E2E2E2E2E2E2E2E2E2E2E2E2E2E2E2E2E2E2E2E2E2E2E2E2E2E2E2E2E2E2E2E2E2E2E2E2E2E2E2E2E2E2E2E2E2E2E2E2E2E2E2E2E2E2E2E2E2E2E2E2E2E2E2E2E2E2E2E2E2E2E2E2E2E2E2E2E2E2E2E2E2E2E2E2E2E2E2E2E2E2E2E2E2E2E2E2E2E2E2E2E2E2E2E2E2E2E2E2E2E2E2E2E2E2E2E2E2E2DCE2F5E2E2E2
310
E2E2E2E2E2E2E2E2E2E2E2E2E2F5E2E2E2F5F5E2E2E2F5E2E2E2E2E2E2E2E2E2E2E2E2E2E2E2E2F5E2DCE2E2E2E2E2E2E2E2E2E2E2E2E2E2E2E2E2E2E2E2E2E2E2E2E2E2E2E2E2E2E2E2E2E2E2E2E2E2E2E2E2E2E2E2E2E2E2E2E2E2E2E2E2E2E2E2E2E2E2E2E2E2E2E2E2E2E2E2E2E2E2E2E2E2E2E2E2E2E2E2E2E2E2E2E2
310
E2E2E2E2E2E2E2E2E2E2E2E2E2E2E2E2E2E2E2E2E2E2E2E2E2E2E2E2E2E2E2E2E2E2E2E2E2E2E2E2E2E2E2E2E2E2E2DCE2F5E2E2E2E2E2E2E2E2E2E2E2E2E2E2E2E2F5E2E2E2F5F5E2E2E2F5E2E2E2E2E2E2E2E2E2E2E2E2E2E2E2E2F5E2DCE2E2E2E2E2E2E2E2E2E2E2E2E2E2E2E2E2E2E2E2E2E2E2E2E2E2E2E2E2E2E2E2
310
E2E2E2E2E2E2E2E2E2E2E2E2E2E2E2E2E2E2E2E2E2E2E2E2E2E2E2E2E2E2E2E2E2E2E2E2E2E2E2E2E2E2E2E2E2E2E2E2E2E2E2E2E2E2E2E2E2E2E2E2E2E2E2E2E2E2E2E2E2E2E2E2E2E2E2E2E2E2E2E2E2E2E2E2E2E2E2E2E2E2E2E2E2E2E2E2E2E2E2E2DCE2F5E2E2E2E2E2E2E2E2E2E2E2E2E2E2E2E2F5E2E2E2F5F5E2E2
310
E2F5E2E2E2E2E2E2E2E2E2E2E2E2E2E2E2E2F5E2DCE2E2E2E2E2DCDCDCDCDCDCDCDCDCDCDCDCDCDCDCDCDCDCDCDCDCDCDCDCDCDCDCDCDCDCDCDCDCDCDCDCDCDCDCDCDCDCDCDCDCDCDCDCDCDCDCDCDCDCDCDCDCDCDCDCDCDCDCDCDCDCDCDCDCDCDCDCDCDCDCDCDCDCDCDCDCDCDCDCDCDCDCDCDCDCDCDCDCDCDCDCDCDCDCDCDC
310
DCDCDCDCDCDCDCDCDCDCDCDCDCDCDCDCDCDCDCDCDCE2E2E2E2E2DCE2F5E2E2E2E2E2E2E2E2E2E2E2E2E2E2E2E2F5E2E2E2F5F5E2E2E2F5E2E2E2E2E2E2E2E2E2E2E2E2E2E2E2E2F5E2DCE2E2E2E2E2DCE2E2E2E2E2E2E2E2E2E2E2E2E2E2E2E2E2E2E2E2E2E2E2E2E2E2E2E2E2E2E2E2E2E2E2E2E2E2E2E2E2E2E2E2E2E2E2
310
E2E2E2E2E2E2E2E2E2E2E2E2E2E2E2E2E2E2E2E2E2E2E2E2E2E2E2E2E2E2E2E2E2E2E2E2E2E2E2E2E2E2E2E2E2E2E2E2E2E2E2E2E2E2E2E2E2E2E2E2E2E2E2E2E2E2E2E2E2E2E2E2E2DCE2E2E2E2E2DCE2F5E2E2E2E2E2E2E2E2E2E2E2E2E2E2E2E2F5E2E2E2F5F5E2E2E2F5E2E2E2E2E2E2E2E2E2E2E2E2E2E2E2E2F5E2DC
310
E2E2E2E2E2DCE2E2E2E2E2E2E2E2E2E2E2E2E2E2E2E2E2E2E2E2E2E2E2E2E2E2E2E2E2E2E2E2E2E2E2E2E2E2E2E2E2E2E2E2E2E2E2E2E2E2E2E2E2E2E2E2E2E2E2E2E2E2E2E2E2E2E2E2E2E2E2E2E2E2E2E2E2E2E2E2E2E2E2E2E2E2E2E2E2E2E2E2E2E2E2E2E2E2E2E2E2E2E2E2E2E2E2E2E2E2E2E2E2E2E2E2E2E2E2E2DC
310
E2E2E2E2E2DCE2F5E2E2E2E2E2E2E2E2E2E2E2E2E2E2E2E2F5E2E2E2F5F5E2E2E2F5E2E2E2E2E2E2E2E2E2E2E2E2E2E2E2E2F5E2DCE2E2E2E2E2DCE2E2E2E2E2E2E2E2E2E2E2E2E2E2E2E2E2E2E2E2E2E2E2E2E2E2E2E2E2E2E2E2E2E2E2E2E2E2E2E2E2E2E2E2E2E2E2E2E2E2E2E2E2E2E2E2E2E2E2E2E2E2E2E2E2E2E2E2
310
E2E2E2E2E2E2E2E2E2E2E2E2E2E2E2E2E2E2E2E2E2E2E2E2E2E2E2E2E2E2E2E2E2E2E2E2E2E2E2E2E2E2E2E2E2E2E2E2E2E2E2E2DCE2E2E2E2E2DCE2F5E2E2E2E2E2E2E2E2E2E2E2E2E2E2E2E2F5E2E2E2F5F5E2E2E2F5E2E2E2E2E2E2E2E2E2E2E2E2E2E2E2E2F5E2DCE2E2E2E2E2DCE2E2E2E2E2E2E2E2E2E2E2E2E2E2E2
310
E2E2E2E2E2E2E2E2E2E2E2E2E2E2E2E2E2E2E2E2E2E2E2E2E2E2E2E2E2E2E2E2E2E2E2E2E2E2E2E2E2E2E2E2E2E2E2E2E2E2E2E2E2E2E2E2E2E2E2E2E2E2E2E2E2E2E2E2E2E2E2E2E2E2E2E2E2E2E2E2E2E2E2E2E2E2E2E2E2E2E2E2E2E2E2E2E2E2E2E2E2E2E2E2E2DCE2E2E2E2E2DCE2F5E2E2E2E2E2E2E2E2E2E2E2E2E2
310
E2E2E2F5E2E2E2F5F5E2E2E2F5E2E2E2E2E2E2E2E2E2E2E2E2E2E2E2E2F5E2DCE2E2E2E2E2DCE2E2E2E2E2E2E2E2E2E2E2E2E2E2E2E2E2E2E2E2E2E2E2E2E2E2E2E2E2E2E2E2E2E2E2E2E2E2E2E2E2E2E2E2E2E2E2E2E2E2E2E2E2E2E2E2E2E2E2E2E2E2E2E2E2E2E2E2E2E2E2E2E2E2E2E2E2E2E2E2E2E2E2E2E2E2E2E2E2
310
E2E2E2E2E2E2E2E2E2E2E2E2E2E2E2E2E2E2E2E2E2E2E2E2E2E2E2E2E2E2E2DCE2E2E2E2E2DCE2F5E2E2E2E2E2E2E2E2E2E2E2E2E2E2E2E2F5E2E2E2F5F5E2E2E2F5E2E2E2E2E2E2E2E2E2E2E2E2E2E2E2E2F5E2DCE2E2E2E2E2DCE2E2E2E2E2E2E2E2E2E2E2E2E2E2E2E2E2E2E2E2E2E2E2E2E2E2E2E2E2E2E2E2E2E2E2E2
310
E2E2E2E2E2E2E2E2E2E2E2E2E2E2E2E2E2E2E2E2E2E2E2E2E2E2E2E2E2E2E2E2E2E2E2E2E2E2E2E2E2E2E2E2E2E2E2E2E2E2E2E2E2E2E2E2E2E2E2E2E2E2E2E2E2E2E2E2E2E2E2E2E2E2E2E2E2E2E2E2E2E2E2E2DCE2E2E2E2E2DCE2F5E2E2E2E2E2E2E2E2E2E2E2E2E2E2E2E2F5E2E2E2F5F5E2E2E2F5E2E2E2E2E2E2E2E2
310
E2E2E2E2E2E2E2E2F5E2DCE2E2E2E2E2DCE2E2E2E2E2E2E2E2E2E2E2E2E2E2E2E2E2E2E2E2E2E2E2E2E2E2E2E2E2E2E2E2E2E2E2E2E2E2E2E2E2E2E2E2E2E2E2E2E2E2E2E2E2E2E2E2E2E2E2E2E2E2E2E2E2E2E2E2E2E2E2E2E2E2E2E2E2E2E2E2E2E2E2E2E2E2E2E2E2E2E2E2E2E2E2E2E2E2E2E2E2E2E2E2E2E2E2E2E2E2
310
E2E2E2E2E2E2E2E2E2E2DCE2E2E2E2E2DCE2F5E2E2E2E2E2E2E2E2E2E2E2E2E2E2E2E2F5E2E2E2F5F5E2E2E2F5E2E2E2E2E2E2E2E2E2E2E2E2E2E2E2E2F5E2DCE2E2E2E2E2DCE2E2E2E2E2E2E2E2E2E2E2E2E2E2E2E2E2E2E2E2E2E2E2E2E2E2E2E2E2E2E2E2E2E2E2E2E2E2E2E2E2E2E2E2E2E2E2E2E2E2E2E2E2E2E2E2E2
310
E2E2E2E2E2E2E2E2E2E2E2E2E2E2E2E2E2E2E2E2E2E2E2E2E2E2E2E2E2E2E2E2E2E2E2E2E2E2E2E2E2E2E2E2E2E2E2E2E2E2E2E2E2E2E2E2E2E2E2E2E2E2E2DCE2E2E2E2E2DCE2F5E2E2E2E2E2E2E2E2E2E2E2E2E2E2E2E2F5E2E2E2F5F5E2E2E2F5E2E2E2E2E2E2E2E2E2E2E2E2E2E2E2E2F5E2DCE2E2E2E2E2DCE2E2E2E2
310
E2E2E2E2E2E2E2E2E2E2E2E2E2E2E2E2E2E2E2E2E2E2E2E2E2E2E2E2E2E2E2E2E2E2E2E2E2E2E2E2E2E2E2E2E2E2E2E2E2E2E2E2E2E2E2E2E2E2E2E2E2E2E2E2E2E2E2E2E2E2E2E2E2E2E2E2E2E2E2E2E2E2E2E2E2E2E2E2E2E2E2E2E2E2E2E2E2E2E2E2E2E2E2E2E2E2E2E2E2E2E2E2E2E2E2E2DCE2E2E2E2E2DCE2F5E2E2
310
E2E2E2E2E2E2E2E2E2E2E2E2E2E2F5E2E2E2F5F5E2E2E2F5E2E2E2E2E2E2E2E2E2E2E2E2E2E2E2E2F5E2DCE2E2E2E2E2DCE2E2E2E2E2E2E2E2E2E2E2E2E2E2E2E2E2E2E2E2E2E2E2E2E2E2E2E2E2E2E2E2E2E2E2E2E2E2E2E2E2E2E2E2E2E2E2E2E2E2E2E2E2E2E2E2E2E2E2E2E2E2E2E2E2E2E2E2E2E2E2E2E2E2E2E2E2E2
310
E2E2E2E2E2E2E2E2E2E2E2E2E2E2E2E2E2E2E2E2E2E2E2E2E2E2E2E2E2E2E2E2E2E2E2E2E2E2E2E2E2E2DCE2E2E2E2E2DCE2F5E2E2E2E2E2E2E2E2E2E2E2E2E2E2E2E2F5E2E2E2F5F5E2E2E2F5E2E2E2E2E2E2E2E2E2E2E2E2E2E2E2E2F5E2DCE2E2E2E2E2DCE2E2E2E2E2E2E2E2E2E2E2E2E2E2E2E2E2E2E2E2E2E2E2E2E2
310
E2E2E2E2E2E2E2E2E2E2E2E2E2E2E2E2E2E2E2E2E2E2E2E2E2E2E2E2E2E2E2E2E2E2E2E2E2E2E2E2E2E2E2E2E2E2E2E2E2E2E2E2E2E2E2E2E2E2E2E2E2E2E2E2E2E2E2E2E2E2E2E2E2E2E2E2E2E2E2E2E2E2E2E2E2E2E2E2E2E2E2E2E2E2E2DCE2E2E2E2E2DCE2F5E2E2E2E2E2E2E2E2E2E2E2E2E2E2E2E2F5E2E2E2F5F5E2
310
E2E2E2E2E2E2E2E2E2E2E2E2E2E2E2E2E2E2E2F5E2DCE2E2E2E2E2DCE2E2E2E2E2E2E2E2E2E2E2E2E2E2E2E2E2E2E2E2E2E2E2E2E2E2E2E2E2E2E2E2E2E2E2E2E2E2E2E2E2E2E2E2E2E2E2E2E2E2E2E2E2E2E2E2E2E2E2E2E2E2E2E2E2E2E2E2E2E2E2E2E2E2E2E2E2E2E2E2E2E2E2E2E2E2E2E2E2E2E2E2E2E2E2E2E2E2E2
310
E2E2E2E2E2E2E2E2E2E2E2E2E2E2E2E2E2E2E2E2E2DCE2E2E2E2E2DCE2F5E2E2E2E2E2E2E2E2E2E2E2E2E2E2E2E2E2E2E2E2F5F5E2E2E2E2E2E2E2E2E2E2E2E2E2E2E2E2E2E2E2E2F5E2DCE2E2E2E2E2DCE2E2E2E2E2E2E2E2E2E2E2E2E2E2E2E2E2E2E2E2E2E2E2E2E2E2E2E2E2E2E2E2E2E2E2E2E2E2E2E2E2E2E2E2E2E2
310
E2E2E2E2E2E2E2E2E2E2E2E2E2E2E2E2E2E2E2E2E2E2E2E2E2E2E2E2E2E2E2E2E2E2E2E2E2E2E2E2E2E2E2E2E2E2E2E2E2E2E2E2E2E2E2E2E2E2E2E2E2E2E2E2E2E2E2E2E2E2E2E2E2E2DCE2E2E2E2E2DCE2F5E2E2E2E2E2E2E2E2E2E2E2E2E2E2E2E2E2E2E2E2F5F5E2E2E2E2E2E2E2E2E2E2E2E2E2E2E2E2E2E2E2E2F5E2
310
DCE2E2E2E2E2DCE2E2E2E2E2E2E2E2E2E2E2E2E2E2E2E2E2E2E2E2E2E2E2E2E2E2E2E2E2E2E2E2E2E2E2E2E2E2E2E2E2E2E2E2E2E2E2E2E2E2E2E2E2E2E2E2E2E2E2E2E2E2E2E2E2E2E2E2E2E2E2E2E2E2E2E2E2E2E2E2E2E2E2E2E2E2E2E2E2E2E2E2E2E2E2E2E2E2E2E2E2E2E2E2E2E2E2E2E2E2E2E2E2E2E2E2E2E2E2E2
310
DCE2E2E2E2E2DCE2F5E2E2E2E2E2E2E2E2E2E2E2E2E2E2E2E2E2E2E2E2F5F5E2E2E2E2E2E2E2E2E2E2E2E2E2E2E2E2E2E2E2E2F5E2DCE2E2E2E2E2DCE2E2E2E2E2E2E2E2E2E2E2E2E2E2E2E2E2E2E2E2E2E2E2E2E2E2E2E2E2E2E2E2E2E2E2E2E2E2E2E2E2E2E2E2E2E2E2E2E2E2E2E2E2E2E2E2E2E2E2E2E2E2E2E2E2E2E2
310
E2E2E2E2E2E2E2E2E2E2E2E2E2E2E2E2E2E2E2E2E2E2E2E2E2E2E2E2E2E2E2E2E2E2E2E2E2E2E2E2E2E2E2E2E2E2E2E2E2E2E2E2E2DCE2E2E2E2E2DCE2F5E2E2E2E2E2E2E2E2E2E2E2E2E2E2E2E2E2E2E2E2F5F5E2E2E2E2E2E2E2E2E2E2E2E2E2E2E2E2E2E2E2E2F5E2DCE2E2E2E2E2DCE2E2E2E2E2E2E2E2E2E2E2E2E2E2
310
E2E2E2E2E2E2E2E2E2E2E2E2E2E2E2E2E2E2E2E2E2E2E2E2E2E2E2E2E2E2E2E2E2E2E2E2E2E2E2E2E2E2E2E2E2E2E2E2E2E2E2E2E2E2E2E2E2E2E2E2E2E2E2E2E2E2E2E2E2E2E2E2E2E2E2E2E2E2E2E2E2E2E2E2E2E2E2E2E2E2E2E2E2E2E2E2E2E2E2E2E2E2E2E2E2E2DCE2E2E2E2E2DCE2F5E2E2E2E2E2E2E2E2E2E2E2E2
310
E2E2E2E2E2E2E2E2F5F5E2E2E2E2E2E2E2E2E2E2E2E2E2E2E2E2E2E2E2E2F5E2DCE2E2E2E2E2DCE2E2E2E2E2E2E2E2E2E2E2E2E2E2E2E2E2E2E2E2E2E2E2E2E2E2E2E2E2E2E2E2E2E2E2E2E2E2E2E2E2E2E2E2E2E2E2E2E2E2E2E2E2E2E2E2E2E2E2E2E2E2E2E2E2E2E2E2E2E2E2E2E2E2E2E2E2E2E2E2E2E2E2E2E2E2E2E2
310
E2E2E2E2E2E2E2E2E2E2E2E2E2E2E2E2E2E2E2E2E2E2E2E2E2E2E2E2E2E2E2E2DCE2E2E2E2E2DCE2F5E2E2E2E2E2E2E2E2E2E2E2E2E2E2E2E2E2E2E2E2F5F5E2E2E2E2E2E2E2E2E2E2E2E2E2E2E2E2E2E2E2E2F5E2DCE2E2E2E2E2DCE2E2E2E2E2E2E2E2E2E2E2E2E2E2E2E2E2E2E2E2E2E2E2E2E2E2E2E2E2E2E2E2E2E2E2
310
E2E2E2E2E2E2E2E2E2E2E2E2E2E2E2E2E2E2E2E2E2E2E2E2E2E2E2E2E2E2E2E2E2E2E2E2E2E2E2E2E2E2E2E2E2E2E2E2E2E2E2E2E2E2E2E2E2E2E2E2E2E2E2E2E2E2E2E2E2E2E2E2E2E2E2E2E2E2E2E2E2E2E2E2E2DCE2E2E2E2E2DCE2F5E2E2E2E2E2E2E2E2E2E2E2E2E2E2E2E2E2E2E2E2F5F5E2E2E2E2E2E2E2E2E2E2E2
310
E2E2E2E2E2E2E2E2E2F5E2DCE2E2E2E2E2DCE2E2E2E2E2E2E2E2E2E2E2E2E2E2E2E2E2E2E2E2E2E2E2E2E2E2E2E2E2E2E2E2E2E2E2E2E2E2E2E2E2E2E2E2E2E2E2E2E2E2E2E2E2E2E2E2E2E2E2E2E2E2E2E2E2E2E2E2E2E2E2E2E2E2E2E2E2E2E2E2E2E2E2E2E2E2E2E2E2E2E2E2E2E2E2E2E2E2E2E2E2E2E2E2E2E2E2E2E2
310
E2E2E2E2E2E2E2E2E2E2E2DCE2E2E2E2E2DCE2F5E2E2E2E2E2E2E2E2E2E2E2E2E2E2E2E2E2E2E2E2F5F5E2E2E2E2E2E2E2E2E2E2E2E2E2E2E2E2E2E2E2E2F5E2DCE2E2E2E2E2DCE2E2E2E2E2E2E2E2E2E2E2E2E2E2E2E2E2E2E2E2E2E2E2E2E2E2E2E2E2E2E2E2E2E2E2E2E2E2E2E2E2E2E2E2E2E2E2E2E2E2E2E2E2E2E2E2
310
E2E2E2E2E2E2E2E2E2E2E2E2E2E2E2E2E2E2E2E2E2E2E2E2E2E2E2E2E2E2E2E2E2E2E2E2E2E2E2E2E2E2E2E2E2E2E2E2E2E2E2E2E2E2E2E2E2E2E2E2E2E2E2E2DCE2E2E2E2E2DCE2F5E2E2E2E2E2E2E2E2E2E2E2E2E2E2E2E2E2E2E2E2F5F5E2E2E2F5E2E2E2E2E2E2E2E2E2E2E2E2E2E2E2E2F5E2DCE2E2E2E2E2DCE2E2E2
310
E2E2E2E2E2E2E2E2E2E2E2E2E2E2E2E2E2E2E2E2E2E2E2E2E2E2E2E2E2E2E2E2E2E2E2E2E2E2E2E2E2E2E2E2E2E2E2E2E2E2E2E2E2E2E2E2E2E2E2E2E2E2E2E2E2E2E2E2E2E2E2E2E2E2E2E2E2E2E2E2E2E2E2E2E2E2E2E2E2E2E2E2E2E2E2E2E2E2E2E2E2E2E2E2E2E2E2E2E2E2E2E2E2E2E2E2E2DCE2E2E2E2E2DCE2F5E2
310
E2E2E2E2E2E2E2E2E2E2E2E2E2E2E2F5E2E2E2F5F5E2E2E2F5E2E2E2E2E2E2E2E2E2E2E2E2E2E2E2E2F5E2DCE2E2E2E2E2DCE2E2E2E2E2E2E2E2E2E2E2E2E2E2E2E2E2E2E2E2E2E2E2E2E2E2E2E2E2E2E2E2E2E2E2E2E2E2E2E2E2E2E2E2E2E2E2E2E2E2E2E2E2E2E2E2E2E2E2E2E2E2E2E2E2E2E2E2E2E2E2E2E2E2E2E2E2
310
E2E2E2E2E2E2E2E2E2E2E2E2E2E2E2E2E2E2E2E2E2E2E2E2E2E2E2E2E2E2E2E2E2E2E2E2E2E2E2E2E2E2E2DCE2E2E2E2E2DCE2F5E2E2E2E2E2E2E2E2E2E2E2E2E2E2E2E2F5E2E2E2F5F5E2E2E2F5E2E2E2E2E2E2E2E2E2E2E2E2E2E2E2E2F5E2DCE2E2E2E2E2DCE2E2E2E2E2E2E2E2E2E2E2E2E2E2E2E2E2E2E2E2E2E2E2E2
310
E2E2E2E2E2E2E2E2E2E2E2E2E2E2E2E2E2E2E2E2E2E2E2E2E2E2E2E2E2E2E2E2E2E2E2E2E2E2E2E2E2E2E2E2E2E2E2E2E2E2E2E2E2E2E2E2E2E2E2E2E2E2E2E2E2E2E2E2E2E2E2E2E2E2E2E2E2E2E2E2E2E2E2E2E2E2E2E2E2E2E2E2E2E2E2E2DCE2E2E2E2E2DCE2F5E2E2E2E2E2E2E2E2E2E2E2E2E2E2E2E2F5E2E2E2F5F5
310
E2E2E2F5E2E2E2E2E2E2E2E2E2E2E2E2E2E2E2E2F5E2DCE2E2E2E2E2DCE2E2E2E2E2E2E2E2E2E2E2E2E2E2E2E2E2E2E2E2E2E2E2E2E2E2E2E2E2E2E2E2E2E2E2E2E2E2E2E2E2E2E2E2E2E2E2E2E2E2E2E2E2E2E2E2E2E2E2E2E2E2E2E2E2E2E2E2E2E2E2E2E2E2E2E2E2E2E2E2E2E2E2E2E2E2E2E2E2E2E2E2E2E2E2E2E2E2
310
E2E2E2E2E2E2E2E2E2E2E2E2E2E2E2E2E2E2E2E2E2E2DCE2E2E2E2E2DCE2F5E2E2E2E2E2E2E2E2E2E2E2E2E2E2E2E2F5E2E2E2F5F5E2E2E2F5E2E2E2E2E2E2E2E2E2E2E2E2E2E2E2E2F5E2DCE2E2E2E2E2DCE2E2E2E2E2E2E2E2E2E2E2E2E2E2E2E2E2E2E2E2E2E2E2E2E2E2E2E2E2E2E2E2E2E2E2E2E2E2E2E2E2E2E2E2E2
310
E2E2E2E2E2E2E2E2E2E2E2E2E2E2E2E2E2E2E2E2E2E2E2E2E2E2E2E2E2E2E2E2E2E2E2E2E2E2E2E2E2E2E2E2E2E2E2E2E2E2E2E2E2E2E2E2E2E2E2E2E2E2E2E2E2E2E2E2E2E2E2E2E2E2E2DCE2E2E2E2E2DCE2F5E2E2E2E2E2E2E2E2E2E2E2E2E2E2E2E2F5E2E2E2F5F5E2E2E2F5E2E2E2E2E2E2E2E2E2E2E2E2E2E2E2E2F5
310
E2DCE2E2E2E2E2DCE2E2E2E2E2E2E2E2E2E2E2E2E2E2E2E2E2E2E2E2E2E2E2E2E2E2E2E2E2E2E2E2E2E2E2E2E2E2E2E2E2E2E2E2E2E2E2E2E2E2E2E2E2E2E2E2E2E2E2E2E2E2E2E2E2E2E2E2E2E2E2E2E2E2E2E2E2E2E2E2E2E2E2E2E2E2E2E2E2E2E2E2E2E2E2E2E2E2E2E2E2E2E2E2E2E2E2E2E2E2E2E2E2E2E2E2E2E2E2
310
E2DCE2E2E2E2E2DCE2F5E2E2E2E2E2E2E2E2E2E2E2E2E2E2E2E2F5E2E2E2F5F5E2E2E2F5E2E2E2E2E2E2E2E2E2E2E2E2E2E2E2E2F5E2DCE2E2E2E2E2DCE2E2E2E2E2E2E2E2E2E2E2E2E2E2E2E2E2E2E2E2E2E2E2E2E2E2E2E2E2E2E2E2E2E2E2E2E2E2E2E2E2E2E2E2E2E2E2E2E2E2E2E2E2E2E2E2E2E2E2E2E2E2E2E2E2E2
310
E2E2E2E2E2E2E2E2E2E2E2E2E2E2E2E2E2E2E2E2E2E2E2E2E2E2E2E2E2E2E2E2E2E2E2E2E2E2E2E2E2E2E2E2E2E2E2E2E2E2E2E2E2E2DCE2E2E2E2E2DCE2F5E2E2E2E2E2E2E2E2E2E2E2E2E2E2E2E2F5E2E2E2F5F5E2E2E2F5E2E2E2E2E2E2E2E2E2E2E2E2E2E2E2E2F5E2DCE2E2E2E2E2DCE2E2E2E2E2E2E2E2E2E2E2E2E2
310
E2E2E2E2E2E2E2E2E2E2E2E2E2E2E2E2E2E2E2E2E2E2E2E2E2E2E2E2E2E2E2E2E2E2E2E2E2E2E2E2E2E2E2E2E2E2E2E2E2E2E2E2E2E2E2E2E2E2E2E2E2E2E2E2E2E2E2E2E2E2E2E2E2E2E2E2E2E2E2E2E2E2E2E2E2E2E2E2E2E2E2E2E2E2E2E2E2E2E2E2E2E2E2E2E2E2E2DCE2E2E2E2E2DCE2F5E2E2E2E2E2E2E2E2E2E2E2
310
E2E2E2E2E2F5E2E2E2F5F5E2E2E2F5E2E2E2E2E2E2E2E2E2E2E2E2E2E2E2E2F5E2DCE2E2E2E2E2DCE2E2E2E2E2E2E2E2E2E2E2E2E2E2E2E2E2E2E2E2E2E2E2E2E2E2E2E2E2E2E2E2E2E2E2E2E2E2E2E2E2E2E2E2E2E2E2E2E2E2E2E2E2E2E2E2E2E2E2E2E2E2E2E2E2E2E2E2E2E2E2E2E2E2E2E2E2E2E2E2E2E2E2E2E2E2E2
310
E2E2E2E2E2E2E2E2E2E2E2E2E2E2E2E2E2E2E2E2E2E2E2E2E2E2E2E2E2E2E2E2E2DCE2E2E2E2E2DCE2F5E2E2E2E2E2E2E2E2E2E2E2E2E2E2E2E2F5E2E2E2F5F5E2E2E2F5E2E2E2E2E2E2E2E2E2E2E2E2E2E2E2E2F5E2DCE2E2E2E2E2DCE2E2E2E2E2E2E2E2E2E2E2E2E2E2E2E2E2E2E2E2E2E2E2E2E2E2E2E2E2E2E2E2E2E2
310
E2E2E2E2E2E2E2E2E2E2E2E2E2E2E2E2E2E2E2E2E2E2E2E2E2E2E2E2E2E2E2E2E2E2E2E2E2E2E2E2E2E2E2E2E2E2E2E2E2E2E2E2E2E2E2E2E2E2E2E2E2E2E2E2E2E2E2E2E2E2E2E2E2E2E2E2E2E2E2E2E2E2E2E2E2E2DCE2E2E2E2E2DCE2F5E2E2E2E2E2E2E2E2E2E2E2E2E2E2E2E2F5E2E2E2F5F5E2E2E2F5E2E2E2E2E2E2
310
E2E2E2E2E2E2E2E2E2E2F5E2DCE2E2E2E2E2DCE2E2E2E2E2E2E2E2E2E2E2E2E2E2E2E2E2E2E2E2E2E2E2E2E2E2E2E2E2E2E2E2E2E2E2E2E2E2E2E2E2E2E2E2E2E2E2E2E2E2E2E2E2E2E2E2E2E2E2E2E2E2E2E2E2E2E2E2E2E2E2E2E2E2E2E2E2E2E2E2E2E2E2E2E2E2E2E2E2E2E2E2E2E2E2E2E2E2E2E2E2E2E2E2E2E2E2E2
310
E2E2E2E2E2E2E2E2E2E2E2E2DCE2E2E2E2E2DCE2F5E2E2E2E2E2E2E2E2E2E2E2E2E2E2E2E2F5E2E2E2F5F5E2E2E2F5E2E2E2E2E2E2E2E2E2E2E2E2E2E2E2E2F5E2DCE2E2E2E2E2DCE2E2E2E2E2E2E2E2E2E2E2E2E2E2E2E2E2E2E2E2E2E2E2E2E2E2E2E2E2E2E2E2E2E2E2E2E2E2E2E2E2E2E2E2E2E2E2E2E2E2E2E2E2E2E2
310
E2E2E2E2E2E2E2E2E2E2E2E2E2E2E2E2E2E2E2E2E2E2E2E2E2E2E2E2E2E2E2E2E2E2E2E2E2E2E2E2E2E2E2E2E2E2E2E2E2E2E2E2E2E2E2E2E2E2E2E2E2E2E2E2E2DCE2E2E2E2E2DCE2F5E2E2E2E2E2E2E2E2E2E2E2E2E2E2E2E2F5E2E2E2F5F5E2E2E2F5E2E2E2E2E2E2E2E2E2E2E2E2E2E2E2E2F5E2DCE2E2E2E2E2DCE2E2
310
E2E2E2E2E2E2E2E2E2E2E2E2E2E2E2E2E2E2E2E2E2E2E2E2E2E2E2E2E2E2E2E2E2E2E2E2E2E2E2E2E2E2E2E2E2E2E2E2E2E2E2E2E2E2E2E2E2E2E2E2E2E2E2E2E2E2E2E2E2E2E2E2E2E2E2E2E2E2E2E2E2E2E2E2E2E2E2E2E2E2E2E2E2E2E2E2E2E2E2E2E2E2E2E2E2E2E2E2E2E2E2E2E2E2E2E2E2E2DCE2E2E2E2E2DCE2F5
310
E2E2E2E2E2E2E2E2E2E2E2E2E2E2E2E2F5E2E2E2F5F5E2E2E2F5E2E2E2E2E2E2E2E2E2E2E2E2E2E2E2E2F5E2DCE2E2E2E2E2DCE2E2E2E2E2E2E2E2E2E2E2E2E2E2E2E2E2E2E2E2E2E2E2E2E2E2E2E2E2E2E2E2E2E2E2E2E2E2E2E2E2E2E2E2E2E2E2E2E2E2E2E2E2E2E2E2E2E2E2E2E2E2E2E2E2E2E2E2E2E2E2E2E2E2E2E2
310
E2E2E2E2E2E2E2E2E2E2E2E2E2E2E2E2E2E2E2E2E2E2E2E2E2E2E2E2E2E2E2E2E2E2E2E2E2E2E2E2E2E2E2E2DCE2E2E2E2E2DCE2F5E2E2E2E2E2E2E2E2E2E2E2E2E2E2E2E2F5E2E2E2F5F5E2E2E2F5E2E2E2E2E2E2E2E2E2E2E2E2E2E2E2E2F5E2DCE2E2E2E2E2DCE2E2E2E2E2E2E2E2E2E2E2E2E2E2E2E2E2E2E2E2E2E2E2
310
E2E2E2E2E2E2E2E2E2E2E2E2E2E2E2E2E2E2E2E2E2E2E2E2E2E2E2E2E2E2E2E2E2E2E2E2E2E2E2E2E2E2E2E2E2E2E2E2E2E2E2E2E2E2E2E2E2E2E2E2E2E2E2E2E2E2E2E2E2E2E2E2E2E2E2E2E2E2E2E2E2E2E2E2E2E2E2E2E2E2E2E2E2E2E2E2E2DCE2E2E2E2E2DCE2F5E2E2E2E2E2E2E2E2E2E2E2E2E2E2E2E2F5E2E2E2F5
310
F5E2E2E2E2E2E2E2E2E2E2E2E2E2E2E2E2E2E2E2E2F5E2DCE2E2E2E2E2DCE2E2E2E2E2E2E2E2E2E2E2E2E2E2E2E2E2E2E2E2E2E2E2E2E2E2E2E2E2E2E2E2E2E2E2E2E2E2E2E2E2E2E2E2E2E2E2E2E2E2E2E2E2E2E2E2E2E2E2E2E2E2E2E2E2E2E2E2E2E2E2E2E2E2E2E2E2E2E2E2E2E2E2E2E2E2E2E2E2E2E2E2E2E2E2E2E2
310
E2E2E2E2E2E2E2E2E2E2E2E2E2E2E2E2E2E2E2E2E2E2E2DCE2E2E2E2E2DCE2F5E2E2E2E2E2E2E2E2E2E2E2E2E2E2E2E2E2E2E2E2F5F5E2E2E2E2E2E2E2E2E2E2E2E2E2E2E2E2E2E2E2E2F5E2DCE2E2E2E2E2DCE2E2E2E2E2E2E2E2E2E2E2E2E2E2E2E2E2E2E2E2E2E2E2E2E2E2E2E2E2E2E2E2E2E2E2E2E2E2E2E2E2E2E2E2
310
E2E2E2E2E2E2E2E2E2E2E2E2E2E2E2E2E2E2E2E2E2E2E2E2E2E2E2E2E2E2E2E2E2E2E2E2E2E2E2E2E2E2E2E2E2E2E2E2E2E2E2E2E2E2E2E2E2E2E2E2E2E2E2E2E2E2E2E2E2E2E2E2E2E2E2E2DCE2E2E2E2E2DCE2F5E2E2E2E2E2E2E2E2E2E2E2E2E2E2E2E2E2E2E2E2F5F5E2E2E2E2E2E2E2E2E2E2E2E2E2E2E2E2E2E2E2E2
310
F5E2DCE2E2E2E2E2DCE2E2E2E2E2E2E2E2E2E2E2E2E2E2E2E2E2E2E2E2E2E2E2E2E2E2E2E2E2E2E2E2E2E2E2E2E2E2E2E2E2E2E2E2E2E2E2E2E2E2E2E2E2E2E2E2E2E2E2E2E2E2E2E2E2E2E2E2E2E2E2E2E2E2E2E2E2E2E2E2E2E2E2E2E2E2E2E2E2E2E2E2E2E2E2E2E2E2E2E2E2E2E2E2E2E2E2E2E2E2E2E2E2E2E2E2E2E2
310
E2E2DCE2E2E2E2E2DCE2F5E2E2E2E2E2E2E2E2E2E2E2E2E2E2E2E2E2E2E2E2F5F5E2E2E2E2E2E2E2E2E2E2E2E2E2E2E2E2E2E2E2E2F5E2DCE2E2E2E2E2DCE2E2E2E2E2E2E2E2E2E2E2E2E2E2E2E2E2E2E2E2E2E2E2E2E2E2E2E2E2E2E2E2E2E2E2E2E2E2E2E2E2E2E2E2E2E2E2E2E2E2E2E2E2E2E2E2E2E2E2E2E2E2E2E2E2
310
E2E2E2E2E2E2E2E2E2E2E2E2E2E2E2E2E2E2E2E2E2E2E2E2E2E2E2E2E2E2E2E2E2E2E2E2E2E2E2E2E2E2E2E2E2E2E2E2E2E2E2E2E2E2E2DCE2E2E2E2E2DCE2F5E2E2E2E2E2E2E2E2E2E2E2E2E2E2E2E2E2E2E2E2F5F5E2E2E2E2E2E2E2E2E2E2E2E2E2E2E2E2E2E2E2E2F5E2DCE2E2E2E2E2DCE2E2E2E2E2E2E2E2E2E2E2E2
310
E2E2E2E2E2E2E2E2E2E2E2E2E2E2E2E2E2E2E2E2E2E2E2E2E2E2E2E2E2E2E2E2E2E2E2E2E2E2E2E2E2E2E2E2E2E2E2E2E2E2E2E2E2E2E2E2E2E2E2E2E2E2E2E2E2E2E2E2E2E2E2E2E2E2E2E2E2E2E2E2E2E2E2E2E2E2E2E2E2E2E2E2E2E2E2E2E2E2E2E2E2E2E2E2E2E2E2E2DCE2E2E2E2E2DCE2F5E2E2E2E2E2E2E2E2E2E2
310
E2E2E2E2E2E2E2E2E2E2F5F5E2E2E2E2E2E2E2E2E2E2E2E2E2E2E2E2E2E2E2E2F5E2DCE2E2E2E2E2DCE2E2E2E2E2E2E2E2E2E2E2E2E2E2E2E2E2E2E2E2E2E2E2E2E2E2E2E2E2E2E2E2E2E2E2E2E2E2E2E2E2E2E2E2E2E2E2E2E2E2E2E2E2E2E2E2E2E2E2E2E2E2E2E2E2E2E2E2E2E2E2E2E2E2E2E2E2E2E2E2E2E2E2E2E2E2
310
E2E2E2E2E2E2E2E2E2E2E2E2E2E2E2E2E2E2E2E2E2E2E2E2E2E2E2E2E2E2E2E2E2E2DCE2E2E2E2E2DCE2F5E2E2E2E2E2E2E2E2E2E2E2E2E2E2E2E2E2E2E2E2F5F5E2E2E2E2E2E2E2E2E2E2E2E2E2E2E2E2E2E2E2E2F5E2DCE2E2E2E2E2DCE2E2E2E2E2E2E2E2E2E2E2E2E2E2E2E2E2E2E2E2E2E2E2E2E2E2E2E2E2E2E2E2E2
310
E2E2E2E2E2E2E2E2E2E2E2E2E2E2E2E2E2E2E2E2E2E2E2E2E2E2E2E2E2E2E2E2E2E2E2E2E2E2E2E2E2E2E2E2E2E2E2E2E2E2E2E2E2E2E2E2E2E2E2E2E2E2E2E2E2E2E2E2E2E2E2E2E2E2E2E2E2E2E2E2E2E2E2E2E2E2E2DCE2E2E2E2E2DCE2F5E2E2E2E2E2E2E2E2E2E2E2E2E2E2E2E2E2E2E2E2F5F5E2E2E2E2E2E2E2E2E2
310
E2E2E2E2E2E2E2E2E2E2E2F5E2DCE2E2E2E2E2DCE2E2E2E2E2E2E2E2E2E2E2E2E2E2E2E2E2E2E2E2E2E2E2E2E2E2E2E2E2E2E2E2E2E2E2E2E2E2E2E2E2E2E2E2E2E2E2E2E2E2E2E2E2E2E2E2E2E2E2E2E2E2E2E2E2E2E2E2E2E2E2E2E2E2E2E2E2E2E2E2E2E2E2E2E2E2E2E2E2E2E2E2E2E2E2E2E2E2E2E2E2E2E2E2E2E2E2
310
E2E2E2E2E2E2E2E2E2E2E2E2E2DCE2E2E2E2E2DCE2F5E2E2E2E2E2E2E2E2E2E2E2E2E2E2E2E2E2E2E2E2F5F5E2E2E2F5E2E2E2E2E2E2E2E2E2E2E2E2E2E2E2E2F5E2DCE2E2E2E2E2DCE2E2E2E2E2E2E2E2E2E2E2E2E2E2E2E2E2E2E2E2E2E2E2E2E2E2E2E2E2E2E2E2E2E2E2E2E2E2E2E2E2E2E2E2E2E2E2E2E2E2E2E2E2E2
310
E2E2E2E2E2E2E2E2E2E2E2E2E2E2E2E2E2E2E2E2E2E2E2E2E2E2E2E2E2E2E2E2E2E2E2E2E2E2E2E2E2E2E2E2E2E2E2E2E2E2E2E2E2E2E2E2E2E2E2E2E2E2E2E2E2E2DCE2E2E2E2E2DCE2F5E2E2E2E2E2E2E2E2E2E2E2E2E2E2E2E2F5E2E2E2F5F5E2E2E2F5E2E2E2E2E2E2E2E2E2E2E2E2E2E2E2E2F5E2DCE2E2E2E2E2DCE2
310
E2E2E2E2E2E2E2E2E2E2E2E2E2E2E2E2E2E2E2E2E2E2E2E2E2E2E2E2E2E2E2E2E2E2E2E2E2E2E2E2E2E2E2E2E2E2E2E2E2E2E2E2E2E2E2E2E2E2E2E2E2E2E2E2E2E2E2E2E2E2E2E2E2E2E2E2E2E2E2E2E2E2E2E2E2E2E2E2E2E2E2E2E2E2E2E2E2E2E2E2E2E2E2E2E2E2E2E2E2E2E2E2E2E2E2E2E2E2E2DCE2E2E2E2E2DCE2
310
F5E2E2E2E2E2E2E2E2E2E2E2E2E2E2E2E2F5E2E2E2F5F5E2E2E2F5E2E2E2E2E2E2E2E2E2E2E2E2E2E2E2E2F5E2DCE2E2E2E2E2DCE2E2E2E2E2E2E2E2E2E2E2E2E2E2E2E2E2E2E2E2E2E2E2E2E2E2E2E2E2E2E2E2E2E2E2E2E2E2E2E2E2E2E2E2E2E2E2E2E2E2E2E2E2E2E2E2E2E2E2E2E2E2E2E2E2E2E2E2E2E2E2E2E2E2E2
310
E2E2E2E2E2E2E2E2E2E2E2E2E2E2E2E2E2E2E2E2E2E2E2E2E2E2E2E2E2E2E2E2E2E2E2E2E2E2E2E2E2E2E2E2E2DCE2E2E2E2E2DCE2F5E2E2E2E2E2E2E2E2E2E2E2E2E2E2E2E2F5E2E2E2F5F5E2E2E2F5E2E2E2E2E2E2E2E2E2E2E2E2E2E2E2E2F5E2DCE2E2E2E2E2DCE2E2E2E2E2E2E2E2E2E2E2E2E2E2E2E2E2E2E2E2E2E2
310
E2E2E2E2E2E2E2E2E2E2E2E2E2E2E2E2E2E2E2E2E2E2E2E2E2E2E2E2E2E2E2E2E2E2E2E2E2E2E2E2E2E2E2E2E2E2E2E2E2E2E2E2E2E2E2E2E2E2E2E2E2E2E2E2E2E2E2E2E2E2E2E2E2E2E2E2E2E2E2E2E2E2E2E2E2E2E2E2E2E2E2E2E2E2E2E2E2E2DCE2E2E2E2E2DCE2F5E2E2E2E2E2E2E2E2E2E2E2E2E2E2E2E2F5E2E2E2
310
F5F5E2E2E2F5E2E2E2E2E2E2E2E2E2E2E2E2E2E2E2E2F5E2DCE2E2E2E2E2DCE2E2E2E2E2E2E2E2E2E2E2E2E2E2E2E2E2E2E2E2E2E2E2E2E2E2E2E2E2E2E2E2E2E2E2E2E2E2E2E2E2E2E2E2E2E2E2E2E2E2E2E2E2E2E2E2E2E2E2E2E2E2E2E2E2E2E2E2E2E2E2E2E2E2E2E2E2E2E2E2E2E2E2E2E2E2E2E2E2E2E2E2E2E2E2E2
310
E2E2E2E2E2E2E2E2E2E2E2E2E2E2E2E2E2E2E2E2E2E2E2E2DCE2E2E2E2E2DCE2F5E2E2E2E2E2E2E2E2E2E2E2E2E2E2E2E2F5E2E2E2F5F5E2E2E2F5E2E2E2E2E2E2E2E2E2E2E2E2E2E2E2E2F5E2DCE2E2E2E2E2DCE2E2E2E2E2E2E2E2E2E2E2E2E2E2E2E2E2E2E2E2E2E2E2E2E2E2E2E2E2E2E2E2E2E2E2E2E2E2E2E2E2E2E2
310
E2E2E2E2E2E2E2E2E2E2E2E2E2E2E2E2E2E2E2E2E2E2E2E2E2E2E2E2E2E2E2E2E2E2E2E2E2E2E2E2E2E2E2E2E2E2E2E2E2E2E2E2E2E2E2E2E2E2E2E2E2E2E2E2E2E2E2E2E2E2E2E2E2E2E2E2E2DCE2E2E2E2E2DCE2F5E2E2E2E2E2E2E2E2E2E2E2E2E2E2E2E2F5E2E2E2F5F5E2E2E2F5E2E2E2E2E2E2E2E2E2E2E2E2E2E2E2
310
E2F5E2DCE2E2E2E2E2DCE2E2E2E2E2E2E2E2E2E2E2E2E2E2E2E2E2E2E2E2E2E2E2E2E2E2E2E2E2E2E2E2E2E2E2E2E2E2E2E2E2E2E2E2E2E2E2E2E2E2E2E2E2E2E2E2E2E2E2E2E2E2E2E2E2E2E2E2E2E2E2E2E2E2E2E2E2E2E2E2E2E2E2E2E2E2E2E2E2E2E2E2E2E2E2E2E2E2E2E2E2E2E2E2E2E2E2E2E2E2E2E2E2E2E2E2E2
310
E2E2E2DCE2E2E2E2E2DCE2F5E2E2E2E2E2E2E2E2E2E2E2E2E2E2E2E2F5E2E2E2F5F5E2E2E2F5E2E2E2E2E2E2E2E2E2E2E2E2E2E2E2E2F5E2DCE2E2E2E2E2DCE2E2E2E2E2E2E2E2E2E2E2E2E2E2E2E2E2E2E2E2E2E2E2E2E2E2E2E2E2E2E2E2E2E2E2E2E2E2E2E2E2E2E2E2E2E2E2E2E2E2E2E2E2E2E2E2E2E2E2E2E2E2E2E2
310
E2E2E2E2E2E2E2E2E2E2E2E2E2E2E2E2E2E2E2E2E2E2E2E2E2E2E2E2E2E2E2E2E2E2E2E2E2E2E2E2E2E2E2E2E2E2E2E2E2E2E2E2E2E2E2E2DCE2E2E2E2E2DCE2F5E2E2E2E2E2E2E2E2E2E2E2E2E2E2E2E2F5E2E2E2F5F5E2E2E2F5E2E2E2E2E2E2E2E2E2E2E2E2E2E2E2E2F5E2DCE2E2E2E2E2DCE2E2E2E2E2E2E2E2E2E2E2
310
E2E2E2E2E2E2E2E2E2E2E2E2E2E2E2E2E2E2E2E2E2E2E2E2E2E2E2E2E2E2E2E2E2E2E2E2E2E2E2E2E2E2E2E2E2E2E2E2E2E2E2E2E2E2E2E2E2E2E2E2E2E2E2E2E2E2E2E2E2E2E2E2E2E2E2E2E2E2E2E2E2E2E2E2E2E2E2E2E2E2E2E2E2E2E2E2E2E2E2E2E2E2E2E2E2E2E2E2E2DCE2E2E2E2E2DCE2F5E2E2E2E2E2E2E2E2E2
310
E2E2E2E2E2E2E2F5E2E2E2F5F5E2E2E2F5E2E2E2E2E2E2E2E2E2E2E2E2E2E2E2E2F5E2DCE2E2E2E2E2DCE2E2E2E2E2E2E2E2E2E2E2E2E2E2E2E2E2E2E2E2E2E2E2E2E2E2E2E2E2E2E2E2E2E2E2E2E2E2E2E2E2E2E2E2E2E2E2E2E2E2E2E2E2E2E2E2E2E2E2E2E2E2E2E2E2E2E2E2E2E2E2E2E2E2E2E2E2E2E2E2E2E2E2E2E2
310
E2E2E2E2E2E2E2E2E2E2E2E2E2E2E2E2E2E2E2E2E2E2E2E2E2E2E2E2E2E2E2E2E2E2E2DCE2E2E2E2E2DCE2F5E2E2E2E2E2E2E2E2E2E2E2E2E2E2E2E2F5E2E2E2F5F5E2E2E2F5E2E2E2E2E2E2E2E2E2E2E2E2E2E2E2E2F5E2DCE2E2E2E2E2DCE2E2E2E2E2E2E2E2E2E2E2E2E2E2E2E2E2E2E2E2E2E2E2E2E2E2E2E2E2E2E2E2
310
E2E2E2E2E2E2E2E2E2E2E2E2E2E2E2E2E2E2E2E2E2E2E2E2E2E2E2E2E2E2E2E2E2E2E2E2E2E2E2E2E2E2E2E2E2E2E2E2E2E2E2E2E2E2E2E2E2E2E2E2E2E2E2E2E2E2E2E2E2E2E2E2E2E2E2E2E2E2E2E2E2E2E2E2E2E2E2E2DCE2E2E2E2E2DCE2F5E2E2E2E2E2E2E2E2E2E2E2E2E2E2E2E2F5E2E2E2F5F5E2E2E2F5E2E2E2E2
310
E2E2E2E2E2E2E2E2E2E2E2E2F5E2DCE2E2E2E2E2DCE2E2E2E2E2E2E2E2E2E2E2E2E2E2E2E2E2E2E2E2E2E2E2E2E2E2E2E2E2E2E2E2E2E2E2E2E2E2E2E2E2E2E2E2E2E2E2E2E2E2E2E2E2E2E2E2E2E2E2E2E2E2E2E2E2E2E2E2E2E2E2E2E2E2E2E2E2E2E2E2E2E2E2E2E2E2E2E2E2E2E2E2E2E2E2E2E2E2E2E2E2E2E2E2E2E2
310
E2E2E2E2E2E2E2E2E2E2E2E2E2E2DCE2E2E2E2E2DCE2F5E2E2E2E2E2E2E2E2E2E2E2E2E2E2E2E2F5E2E2E2F5F5E2E2E2F5E2E2E2E2E2E2E2E2E2E2E2E2E2E2E2E2F5E2DCE2E2E2E2E2DCE2E2E2E2E2E2E2E2E2E2E2E2E2E2E2E2E2E2E2E2E2E2E2E2E2E2E2E2E2E2E2E2E2E2E2E2E2E2E2E2E2E2E2E2E2E2E2E2E2E2E2E2E2
310
E2E2E2E2E2E2E2E2E2E2E2E2E2E2E2E2E2E2E2E2E2E2E2E2E2E2E2E2E2E2E2E2E2E2E2E2E2E2E2E2E2E2E2E2E2E2E2E2E2E2E2E2E2E2E2E2E2E2E2E2E2E2E2E2E2E2E2DCE2E2E2E2E2DCE2F5E2E2E2E2E2E2E2E2E2E2E2E2E2E2E2E2F5E2E2E2F5F5E2E2E2F5E2E2E2E2E2E2E2E2E2E2E2E2E2E2E2E2F5E2DCE2E2E2E2E2DC
310
E2E2E2E2E2E2E2E2E2E2E2E2E2E2E2E2E2E2E2E2E2E2E2E2E2E2E2E2E2E2E2E2E2E2E2E2E2E2E2E2E2E2E2E2E2E2E2E2E2E2E2E2E2E2E2E2E2E2E2E2E2E2E2E2E2E2E2E2E2E2E2E2E2E2E2E2E2E2E2E2E2E2E2E2E2E2E2E2E2E2E2E2E2E2E2E2E2E2E2E2E2E2E2E2E2E2E2E2E2E2E2E2E2E2E2E2E2E2E2E2DCE2E2E2E2E2DC
310
E2F5E2E2E2E2E2E2E2E2E2E2E2E2E2E2E2E2F5E2E2E2F5F5E2E2E2F5E2E2E2E2E2E2E2E2E2E2E2E2E2E2E2E2F5E2DCE2E2E2E2E2DCE2E2E2E2E2E2E2E2E2E2E2E2E2E2E2E2E2E2E2E2E2E2E2E2E2E2E2E2E2E2E2E2E2E2E2E2E2E2E2E2E2E2E2E2E2E2E2E2E2E2E2E2E2E2E2E2E2E2E2E2E2E2E2E2E2E2E2E2E2E2E2E2E2E2
310
E2E2E2E2E2E2E2E2E2E2E2E2E2E2E2E2E2E2E2E2E2E2E2E2E2E2E2E2E2E2E2E2E2E2E2E2E2E2E2E2E2E2E2E2E2E2DCE2E2E2E2E2DCE2F5E2E2E2E2E2E2E2E2E2E2E2E2E2E2E2E2F5E2E2E2F5F5E2E2E2E2E2E2E2E2E2E2E2E2E2E2E2E2E2E2E2E2F5E2DCE2E2E2E2E2DCE2E2E2E2E2E2E2E2E2E2E2E2E2E2E2E2E2E2E2E2E2
310
E2E2E2E2E2E2E2E2E2E2E2E2E2E2E2E2E2E2E2E2E2E2E2E2E2E2E2E2E2E2E2E2E2E2E2E2E2E2E2E2E2E2E2E2E2E2E2E2E2E2E2E2E2E2E2E2E2E2E2E2E2E2E2E2E2E2E2E2E2E2E2E2E2E2E2E2E2E2E2E2E2E2E2E2E2E2E2E2E2E2E2E2E2E2E2E2E2E2E2DCE2E2E2E2E2DCE2F5E2E2E2E2E2E2E2E2E2E2E2E2E2E2E2E2E2E2E2
310
E2F5F5E2E2E2E2E2E2E2E2E2E2E2E2E2E2E2E2E2E2E2E2F5E2DCE2E2E2E2E2DCE2E2E2E2E2E2E2E2E2E2E2E2E2E2E2E2E2E2E2E2E2E2E2E2E2E2E2E2E2E2E2E2E2E2E2E2E2E2E2E2E2E2E2E2E2E2E2E2E2E2E2E2E2E2E2E2E2E2E2E2E2E2E2E2E2E2E2E2E2E2E2E2E2E2E2E2E2E2E2E2E2E2E2E2E2E2E2E2E2E2E2E2E2E2E2
310
E2E2E2E2E2E2E2E2E2E2E2E2E2E2E2E2E2E2E2E2E2E2E2E2E2DCE2E2E2E2E2DCE2F5E2E2E2E2E2E2E2E2E2E2E2E2E2E2E2E2E2E2E2E2F5F5E2E2E2E2E2E2E2E2E2E2E2E2E2E2E2E2E2E2E2E2F5E2DCE2E2E2E2E2DCE2E2E2E2E2E2E2E2E2E2E2E2E2E2E2E2E2E2E2E2E2E2E2E2E2E2E2E2E2E2E2E2E2E2E2E2E2E2E2E2E2E2
310
E2E2E2E2E2E2E2E2E2E2E2E2E2E2E2E2E2E2E2E2E2E2E2E2E2E2E2E2E2E2E2E2E2E2E2E2E2E2E2E2E2E2E2E2E2E2E2E2E2E2E2E2E2E2E2E2E2E2E2E2E2E2E2E2E2E2E2E2E2E2E2E2E2E2E2E2E2E2DCE2E2E2E2E2DCE2F5E2E2E2E2E2E2E2E2E2E2E2E2E2E2E2E2E2E2E2E2F5F5E2E2E2E2E2E2E2E2E2E2E2E2E2E2E2E2E2E2
310
E2E2F5E2DCE2E2E2E2E2DCE2E2E2E2E2E2E2E2E2E2E2E2E2E2E2E2E2E2E2E2E2E2E2E2E2E2E2E2E2E2E2E2E2E2E2E2E2E2E2E2E2E2E2E2E2E2E2E2E2E2E2E2E2E2E2E2E2E2E2E2E2E2E2E2E2E2E2E2E2E2E2E2E2E2E2E2E2E2E2E2E2E2E2E2E2E2E2E2E2E2E2E2E2E2E2E2E2E2E2E2E2E2E2E2E2E2E2E2E2E2E2E2E2E2E2E2
310
E2E2E2E2DCE2E2E2E2E2DCE2F5E2E2E2E2E2E2E2E2E2E2E2E2E2E2E2E2E2E2E2E2F5F5E2E2E2E2E2E2E2E2E2E2E2E2E2E2E2E2E2E2E2E2F5E2DCE2E2E2E2E2DCE2E2E2E2E2E2E2E2E2E2E2E2E2E2E2E2E2E2E2E2E2E2E2E2E2E2E2E2E2E2E2E2E2E2E2E2E2E2E2E2E2E2E2E2E2E2E2E2E2E2E2E2E2E2E2E2E2E2E2E2E2E2E2
310
E2E2E2E2E2E2E2E2E2E2E2E2E2E2E2E2E2E2E2E2E2E2E2E2E2E2E2E2E2E2E2E2E2E2E2E2E2E2E2E2E2E2E2E2E2E2E2E2E2E2E2E2E2E2E2E2E2DCE2E2E2E2E2DCE2F5E2E2E2E2E2E2E2E2E2E2E2E2E2E2E2E2E2E2E2E2F5F5E2E2E2E2E2E2E2E2E2E2E2E2E2E2E2E2E2E2E2E2F5E2DCE2E2E2E2E2DCE2E2E2E2E2E2E2E2E2E2
310
E2E2E2E2E2E2E2E2E2E2E2E2E2E2E2E2E2E2E2E2E2E2E2E2E2E2E2E2E2E2E2E2E2E2E2E2E2E2E2E2E2E2E2E2E2E2E2E2E2E2E2E2E2E2E2E2E2E2E2E2E2E2E2E2E2E2E2E2E2E2E2E2E2E2E2E2E2E2E2E2E2E2E2E2E2E2E2E2E2E2E2E2E2E2E2E2E2E2E2E2E2E2E2E2E2E2E2E2E2E2DCE2E2E2E2E2DCE2F5E2E2E2E2E2E2E2E2
310
E2E2E2E2E2E2E2E2E2E2E2E2F5F5E2E2E2E2E2E2E2E2E2E2E2E2E2E2E2E2E2E2E2E2F5E2DCE2E2E2E2E2DCE2E2E2E2E2E2E2E2E2E2E2E2E2E2E2E2E2E2E2E2E2E2E2E2E2E2E2E2E2E2E2E2E2E2E2E2E2E2E2E2E2E2E2E2E2E2E2E2E2E2E2E2E2E2E2E2E2E2E2E2E2E2E2E2E2E2E2E2E2E2E2E2E2E2E2E2E2E2E2E2E2E2E2E2
310
E2E2E2E2E2E2E2E2E2E2E2E2E2E2E2E2E2E2E2E2E2E2E2E2E2E2E2E2E2E2E2E2E2E2E2E2DCE2E2E2E2E2DCE2F5E2E2E2E2E2E2E2E2E2E2E2E2E2E2E2E2E2E2E2E2F5F5E2E2E2E2E2E2E2E2E2E2E2E2E2E2E2E2E2E2E2E2F5E2DCE2E2E2E2E2DCE2E2E2E2E2E2E2E2E2E2E2E2E2E2E2E2E2E2E2E2E2E2E2E2E2E2E2E2E2E2E2
310
E2E2E2E2E2E2E2E2E2E2E2E2E2E2E2E2E2E2E2E2E2E2E2E2E2E2E2E2E2E2E2E2E2E2E2E2E2E2E2E2E2E2E2E2E2E2E2E2E2E2E2E2E2E2E2E2E2E2E2E2E2E2E2E2E2E2E2E2E2E2E2E2E2E2E2E2E2E2E2E2E2E2E2E2E2E2E2E2E2DCE2E2E2E2E2DCE2F5E2E2E2E2E2E2E2E2E2E2E2E2E2E2E2E2E2E2E2E2F5F5E2E2E2E2E2E2E2
310
E2E2E2E2E2E2E2E2E2E2E2E2E2F5E2DCE2E2E2E2E2DCE2E2E2E2E2E2E2E2E2E2E2E2E2E2E2E2E2E2E2E2E2E2E2E2E2E2E2E2E2E2E2E2E2E2E2E2E2E2E2E2E2E2E2E2E2E2E2E2E2E2E2E2E2E2E2E2E2E2E2E2E2E2E2E2E2E2E2E2E2E2E2E2E2E2E2E2E2E2E2E2E2E2E2E2E2E2E2E2E2E2E2E2E2E2E2E2E2E2E2E2E2E2E2E2E2
310
E2E2E2E2E2E2E2E2E2E2E2E2E2E2E2DCE2E2E2E2E2DCE2F5E2E2E2E2E2E2E2E2E2E2E2E2E2E2E2E2E2E2E2E2F5F5E2E2E2F5E2E2E2E2E2E2E2E2E2E2E2E2E2E2E2E2F5E2DCE2E2E2E2E2DCE2E2E2E2E2E2E2E2E2E2E2E2E2E2E2E2E2E2E2E2E2E2E2E2E2E2E2E2E2E2E2E2E2E2E2E2E2E2E2E2E2E2E2E2E2E2E2E2E2E2E2E2
310
E2E2E2E2E2E2E2E2E2E2E2E2E2E2E2E2E2E2E2E2E2E2E2E2E2E2E2E2E2E2E2E2E2E2E2E2E2E2E2E2E2E2E2E2E2E2E2E2E2E2E2E2E2E2E2E2E2E2E2E2E2E2E2E2E2E2E2E2DCE2E2E2E2E2DCE2F5E2E2E2E2E2E2E2E2E2E2E2E2E2E2E2E2F5E2E2E2F5F5E2E2E2F5E2E2E2E2E2E2E2E2E2E2E2E2E2E2E2E2F5E2DCE2E2E2E2E2
310
DCE2E2E2E2E2E2E2E2E2E2E2E2E2E2E2E2E2E2E2E2E2E2E2E2E2E2E2E2E2E2E2E2E2E2E2E2E2E2E2E2E2E2E2E2E2E2E2E2E2E2E2E2E2E2E2E2E2E2E2E2E2E2E2E2E2E2E2E2E2E2E2E2E2E2E2E2E2E2E2E2E2E2E2E2E2E2E2E2E2E2E2E2E2E2E2E2E2E2E2E2E2E2E2E2E2E2E2E2E2E2E2E2E2E2E2E2E2E2E2E2DCE2E2E2E2E2
310
DCE2F5E2E2E2E2E2E2E2E2E2E2E2E2E2E2E2E2F5E2E2E2F5F5E2E2E2F5E2E2E2E2E2E2E2E2E2E2E2E2E2E2E2E2F5E2DCE2E2E2E2E2DCE2E2E2E2E2E2E2E2E2E2E2E2E2E2E2E2E2E2E2E2E2E2E2E2E2E2E2E2E2E2E2E2E2E2E2E2E2E2E2E2E2E2E2E2E2E2E2E2E2E2E2E2E2E2E2E2E2E2E2E2E2E2E2E2E2E2E2E2E2E2E2E2E2
310
E2E2E2E2E2E2E2E2E2E2E2E2E2E2E2E2E2E2E2E2E2E2E2E2E2E2E2E2E2E2E2E2E2E2E2E2E2E2E2E2E2E2E2E2E2E2E2DCE2E2E2E2E2DCE2F5E2E2E2E2E2E2E2E2E2E2E2E2E2E2E2E2F5E2E2E2F5F5E2E2E2F5E2E2E2E2E2E2E2E2E2E2E2E2E2E2E2E2F5E2DCE2E2E2E2E2DCE2E2E2E2E2E2E2E2E2E2E2E2E2E2E2E2E2E2E2E2
310
E2E2E2E2E2E2E2E2E2E2E2E2E2E2E2E2E2E2E2E2E2E2E2E2E2E2E2E2E2E2E2E2E2E2E2E2E2E2E2E2E2E2E2E2E2E2E2E2E2E2E2E2E2E2E2E2E2E2E2E2E2E2E2E2E2E2E2E2E2E2E2E2E2E2E2E2E2E2E2E2E2E2E2E2E2E2E2E2E2E2E2E2E2E2E2E2E2E2E2E2DCE2E2E2E2E2DCE2F5E2E2E2E2E2E2E2E2E2E2E2E2E2E2E2E2F5E2
310
E2E2F5F5E2E2E2F5E2E2E2E2E2E2E2E2E2E2E2E2E2E2E2E2F5E2DCE2E2E2E2E2DCE2E2E2E2E2E2E2E2E2E2E2E2E2E2E2E2E2E2E2E2E2E2E2E2E2E2E2E2E2E2E2E2E2E2E2E2E2E2E2E2E2E2E2E2E2E2E2E2E2E2E2E2E2E2E2E2E2E2E2E2E2E2E2E2E2E2E2E2E2E2E2E2E2E2E2E2E2E2E2E2E2E2E2E2E2E2E2E2E2E2E2E2E2E2
310
E2E2E2E2E2E2E2E2E2E2E2E2E2E2E2E2E2E2E2E2E2E2E2E2E2E2DCE2E2E2E2E2DCE2F5E2E2E2E2E2E2E2E2E2E2E2E2E2E2E2E2F5E2E2E2F5F5E2E2E2F5E2E2E2E2E2E2E2E2E2E2E2E2E2E2E2E2F5E2DCE2E2E2E2E2DCE2E2E2E2E2E2E2E2E2E2E2E2E2E2E2E2E2E2E2E2E2E2E2E2E2E2E2E2E2E2E2E2E2E2E2E2E2E2E2E2E2
310
E2E2E2E2E2E2E2E2E2E2E2E2E2E2E2E2E2E2E2E2E2E2E2E2E2E2E2E2E2E2E2E2E2E2E2E2E2E2E2E2E2E2E2E2E2E2E2E2E2E2E2E2E2E2E2E2E2E2E2E2E2E2E2E2E2E2E2E2E2E2E2E2E2E2E2E2E2E2E2DCE2E2E2E2E2DCE2F5E2E2E2E2E2E2E2E2E2E2E2E2E2E2E2E2F5E2E2E2F5F5E2E2E2F5E2E2E2E2E2E2E2E2E2E2E2E2E2
310
E2E2E2F5E2DCE2E2E2E2E2DCE2E2E2E2E2E2E2E2E2E2E2E2E2E2E2E2E2E2E2E2E2E2E2E2E2E2E2E2E2E2E2E2E2E2E2E2E2E2E2E2E2E2E2E2E2E2E2E2E2E2E2E2E2E2E2E2E2E2E2E2E2E2E2E2E2E2E2E2E2E2E2E2E2E2E2E2E2E2E2E2E2E2E2E2E2E2E2E2E2E2E2E2E2E2E2E2E2E2E2E2E2E2E2E2E2E2E2E2E2E2E2E2E2E2E2
310
E2E2E2E2E2DCE2E2E2E2E2DCE2F5E2E2E2E2E2E2E2E2E2E2E2E2E2E2E2E2F5E2E2E2F5F5E2E2E2F5E2E2E2E2E2E2E2E2E2E2E2E2E2E2E2E2F5E2DCE2E2E2E2E2DCE2E2E2E2E2E2E2E2E2E2E2E2E2E2E2E2E2E2E2E2E2E2E2E2E2E2E2E2E2E2E2E2E2E2E2E2E2E2E2E2E2E2E2E2E2E2E2E2E2E2E2E2E2E2E2E2E2E2E2E2E2E2
310
E2E2E2E2E2E2E2E2E2E2E2E2E2E2E2E2E2E2E2E2E2E2E2E2E2E2E2E2E2E2E2E2E2E2E2E2E2E2E2E2E2E2E2E2E2E2E2E2E2E2E2E2E2E2E2E2E2E2DCE2E2E2E2E2DCE2F5E2E2E2E2E2E2E2E2E2E2E2E2E2E2E2E2F5E2E2E2F5F5E2E2E2F5E2E2E2E2E2E2E2E2E2E2E2E2E2E2E2E2F5E2DCE2E2E2E2E2DCE2E2E2E2E2E2E2E2E2
310
E2E2E2E2E2E2E2E2E2E2E2E2E2E2E2E2E2E2E2E2E2E2E2E2E2E2E2E2E2E2E2E2E2E2E2E2E2E2E2E2E2E2E2E2E2E2E2E2E2E2E2E2E2E2E2E2E2E2E2E2E2E2E2E2E2E2E2E2E2E2E2E2E2E2E2E2E2E2E2E2E2E2E2E2E2E2E2E2E2E2E2E2E2E2E2E2E2E2E2E2E2E2E2E2E2E2E2E2E2E2E2DCE2E2E2E2E2DCE2F5E2E2E2E2E2E2E2
310
E2E2E2E2E2E2E2E2E2F5E2E2E2F5F5E2E2E2F5E2E2E2E2E2E2E2E2E2E2E2E2E2E2E2E2F5E2DCE2E2E2E2E2DCE2E2E2E2E2E2E2E2E2E2E2E2E2E2E2E2E2E2E2E2E2E2E2E2E2E2E2E2E2E2E2E2E2E2E2E2E2E2E2E2E2E2E2E2E2E2E2E2E2E2E2E2E2E2E2E2E2E2E2E2E2E2E2E2E2E2E2E2E2E2E2E2E2E2E2E2E2E2E2E2E2E2E2
310
E2E2E2E2E2E2E2E2E2E2E2E2E2E2E2E2E2E2E2E2E2E2E2E2E2E2E2E2E2E2E2E2E2E2E2E2E2DCE2E2E2E2E2DCE2F5E2E2E2E2E2E2E2E2E2E2E2E2E2E2E2E2F5E2E2E2F5F5E2E2E2F5E2E2E2E2E2E2E2E2E2E2E2E2E2E2E2E2F5E2DCE2E2E2E2E2DCE2E2E2E2E2E2E2E2E2E2E2E2E2E2E2E2E2E2E2E2E2E2E2E2E2E2E2E2E2E2
310
E2E2E2E2E2E2E2E2E2E2E2E2E2E2E2E2E2E2E2E2E2E2E2E2E2E2E2E2E2E2E2E2E2E2E2E2E2E2E2E2E2E2E2E2E2E2E2E2E2E2E2E2E2E2E2E2E2E2E2E2E2E2E2E2E2E2E2E2E2E2E2E2E2E2E2E2E2E2E2E2E2E2E2E2E2E2E2E2E2E2DCE2E2E2E2E2DCE2F5E2E2E2E2E2E2E2E2E2E2E2E2E2E2E2E2F5E2E2E2F5F5E2E2E2F5E2E2
310
E2E2E2E2E2E2E2E2E2E2E2E2E2E2F5E2DCE2E2E2E2E2DCDCDCDCDCDCDCDCDCDCDCDCDCDCDCDCDCDCDCDCDCDCDCDCDCDCDCDCDCDCDCDCDCDCDCDCDCDCDCDCDCDCDCDCDCDCDCDCDCDCDCDCDCDCDCDCDCDCDCDCDCDCDCDCDCDCDCDCDCDCDCDCDCDCDCDCDCDCDCDCDCDCDCDCDCDCDCDCDCDCDCDCDCDCDCDCDCDCDCDCDCDCDCDCDC
310
DCDCDCDCDCDCDCDCDCDCDCDCDCDCDCDCDCE2E2E2E2E2DCE2F5E2E2E2E2E2E2E2E2E2E2E2E2E2E2E2E2F5E2E2E2F5F5E2E2E2F5E2E2E2E2E2E2E2E2E2E2E2E2E2E2E2E2F5E2DCE2E2E2E2E2E2E2E2E2E2E2E2E2E2E2E2E2E2E2E2E2E2E2E2E2E2E2E2E2E2E2E2E2E2E2E2E2E2E2E2E2E2E2E2E2E2E2E2E2E2E2E2E2E2E2E2E2
310
E2E2E2E2E2E2E2E2E2E2E2E2E2E2E2E2E2E2E2E2E2E2E2E2E2E2E2E2E2E2E2E2E2E2E2E2E2E2E2E2E2E2E2E2E2E2E2E2E2E2E2E2E2E2E2E2E2E2E2E2E2E2E2E2E2E2E2E2E2E2E2E2E2E2E2DCE2F5E2E2E2E2E2E2E2E2E2E2E2E2E2E2E2E2F5E2E2E2F5F5E2E2E2F5E2E2E2E2E2E2E2E2E2E2E2E2E2E2E2E2F5E2DCE2E2E2E2
310
E2E2E2E2E2E2E2E2E2E2E2E2E2E2E2E2E2E2E2E2E2E2E2E2E2E2E2E2E2E2E2E2E2E2E2E2E2E2E2E2E2E2E2E2E2E2E2E2E2E2E2E2E2E2E2E2E2E2E2E2E2E2E2E2E2E2E2E2E2E2E2E2E2E2E2E2E2E2E2E2E2E2E2E2E2E2E2E2E2E2E2E2E2E2E2E2E2E2E2E2E2E2E2E2E2E2E2E2E2E2E2E2E2E2E2E2E2E2E2E2E2E2E2E2E2E2E2
310
E2DCE2F5E2E2E2E2E2E2E2E2E2E2E2E2E2E2E2E2F5E2E2E2F5F5E2E2E2F5E2E2E2E2E2E2E2E2E2E2E2E2E2E2E2E2F5E2DCE2E2E2E2E2E2E2E2E2E2E2E2E2E2E2E2E2E2E2E2E2E2E2E2E2E2E2E2E2E2E2E2E2E2E2E2E2E2E2E2E2E2E2E2E2E2E2E2E2E2E2E2E2E2E2E2E2E2E2E2E2E2E2E2E2E2E2E2E2E2E2E2E2E2E2E2E2E2
310
E2E2E2E2E2E2E2E2E2E2E2E2E2E2E2E2E2E2E2E2E2E2E2E2E2E2E2E2E2E2E2E2E2E2E2E2E2E2E2E2E2E2E2E2E2E2E2E2E2E2E2E2E2E2DCE2F5E2E2E2E2E2E2E2E2E2E2E2E2E2E2E2E2F5E2E2E2F5F5E2E2E2E2E2E2E2E2E2E2E2E2E2E2E2E2E2E2E2E2F5E2DCE2E2E2E2E2E2E2E2E2E2E2E2E2E2E2E2E2E2E2E2E2E2E2E2E2
310
E2E2E2E2E2E2E2E2E2E2E2E2E2E2E2E2E2E2E2E2E2E2E2E2E2E2E2E2E2E2E2E2E2E2E2E2E2E2E2E2E2E2E2E2E2E2E2E2E2E2E2E2E2E2E2E2E2E2E2E2E2E2E2E2E2E2E2E2E2E2E2E2E2E2E2E2E2E2E2E2E2E2E2E2E2E2E2E2E2E2E2E2E2E2E2E2E2E2E2E2E2E2E2E2E2E2E2DCE2F5E2E2E2E2E2E2E2E2E2E2E2E2E2E2E2E2E2
310
E2E2E2F5F5E2E2E2E2E2E2E2E2E2E2E2E2E2E2E2E2E2E2E2E2F5E2DCE2E2E2E2E2E2E2E2E2E2E2E2E2E2E2E2E2E2E2E2E2E2E2E2E2E2E2E2E2E2E2E2E2E2E2E2E2E2E2E2E2E2E2E2E2E2E2E2E2E2E2E2E2E2E2E2E2E2E2E2E2E2E2E2E2E2E2E2E2E2E2E2E2E2E2E2E2E2E2E2E2E2E2E2E2E2E2E2E2E2E2E2E2E2E2E2E2E2E2
310
E2E2E2E2E2E2E2E2E2E2E2E2E2E2E2E2E2E2E2E2E2E2E2E2E2E2E2E2E2E2E2E2E2DCE2F5E2E2E2E2E2E2E2E2E2E2E2E2E2E2E2E2E2E2E2E2F5F5E2E2E2E2E2E2E2E2E2E2E2E2E2E2E2E2E2E2E2E2F5E2DCE2E2E2E2E2E2E2E2E2E2E2E2E2E2E2E2E2E2E2E2E2E2E2E2E2E2E2E2E2E2E2E2E2E2E2E2E2E2E2E2E2E2E2E2E2E2
310
E2E2E2E2E2E2E2E2E2E2E2E2E2E2E2E2E2E2E2E2E2E2E2E2E2E2E2E2E2E2E2E2E2E2E2E2E2E2E2E2E2E2E2E2E2E2E2E2E2E2E2E2E2E2E2E2E2E2E2E2E2E2E2E2E2E2E2E2E2E2E2E2E2E2E2E2E2E2E2E2E2E2E2E2E2E2DCE2F5E2E2E2E2E2E2E2E2E2E2E2E2E2E2E2E2E2E2E2E2F5F5E2E2E2E2E2E2E2E2E2E2E2E2E2E2E2E2
310
E2E2E2E2F5E2DCDCDCDCDCDCDCDCDCDCDCDCDCDCDCDCDCDCDCDCDCDCDCDCDCDCDCDCDCDCDCDCDCDCDCDCDCDCDCDCDCDCDCDCDCDCDCDCDCDCDCDCDCDCDCDCDCDCDCDCDCDCDCDCDCDCDCDCDCDCDCDCDCDCDCDCDCDCDCDCDCDCDCDCDCDCDCDCDCDCDCDCDCDCDCDCDCDCDCDCDCDCDCDCDCDCDCDCDCDCDCDCDCDCDCDCDCDCDCDCDC
310
DCDCDCDCDCDCDCDCDCDCDCDCDCE2F5E2E2E2E2E2E2E2E2E2E2E2E2E2E2E2E2E2E2E2E2F5F5E2E2E2E2E2E2E2E2E2E2E2E2E2E2E2E2E2E2E2E2F5F5F5F5F5F5F5F5F5F5F5F5F5F5F5F5F5F5F5F5F5F5F5F5F5F5F5F5F5F5F5F5F5F5F5F5F5F5F5F5F5F5F5F5F5F5F5F5F5F5F5F5F5F5F5F5F5F5F5F5F5F5F5F5F5F5F5F5F5F5
310
F5F5F5F5F5F5F5F5F5F5F5F5F5F5F5F5F5F5F5F5F5F5F5F5F5F5F5F5F5F5F5F5F5F5F5F5F5F5F5F5F5F5F5F5F5F5F5F5F5F5F5F5F5F5F5F5F5F5F5F5F5F5F5F5F5F5F5F5E2E2E2E2E2E2E2E2E2E2E2E2E2E2E2E2E2E2E2E2F5F5E2E2E2E2E2E2E2E2E2E2E2E2E2E2E2E2E2E2E2E2E2E2E2E2E2E2E2E2E2E2E2E2E2E2E2E2E2
310
E2E2E2E2E2E2E2E2E2E2E2E2E2E2E2E2E2E2E2E2E2E2E2E2E2E2E2E2E2E2E2E2E2E2E2E2E2E2E2E2E2E2E2E2E2E2E2E2E2E2E2E2E2E2E2E2E2E2E2E2E2E2E2E2E2E2E2E2E2E2E2E2E2E2E2E2E2E2E2E2E2E2E2E2E2E2E2E2E2E2E2E2E2E2E2E2E2E2E2E2E2E2E2E2E2E2E2E2E2E2E2E2E2E2E2E2E2E2E2E2E2E2E2E2E2E2E2
310
E2E2E2E2E2E2E2E2E2E2E2E2E2E2F5F5E2E2E2E2E2E2E2E2E2E2E2E2E2E2E2E2E2E2E2E2E2E2E2E2E2E2E2E2E2E2E2E2E2E2E2E2E2E2E2E2E2E2E2E2E2E2E2E2E2E2E2E2E2E2E2E2E2E2E2E2E2E2E2E2E2E2E2E2E2E2E2E2E2E2E2E2E2E2E2E2E2E2E2E2E2E2E2E2E2E2E2E2E2E2E2E2E2E2E2E2E2E2E2E2E2E2E2E2E2E2E2
310
E2E2E2E2E2E2E2E2E2E2E2E2E2E2E2E2E2E2E2E2E2E2E2E2E2E2E2E2E2E2E2E2E2E2E2E2E2E2E2E2E2E2E2E2E2E2E2E2E2E2E2E2E2E2E2E2E2E2E2E2E2E2E2E2E2E2E2F5F5E2E2E2E2E2E2E2E2E2E2E2E2E2E2E2E2E2E2E2E2E2E2E2E2E2E2E2E2E2E2E2E2E2E2E2E2E2E2E2E2E2E2E2E2E2E2E2E2E2E2E2E2E2E2E2E2E2E2
310
E2E2E2E2E2E2E2E2E2E2E2E2E2E2E2E2E2E2E2E2E2E2E2E2E2E2E2E2E2E2E2E2E2E2E2E2E2E2E2E2E2E2E2E2E2E2E2E2E2E2E2E2E2E2E2E2E2E2E2E2E2E2E2E2E2E2E2E2E2E2E2E2E2E2E2E2E2E2E2E2E2E2E2E2E2E2E2E2E2E2E2E2E2E2E2E2E2E2E2E2E2E2E2E2E2E2E2E2E2E2E2E2E2E2E2E2E2E2E2E2F5F5E2E2E2F5E2
310
E2E2E2E2E2E2E2E2E2E2E2E2E2E2E2E2E2E2E2E2E2E2E2E2E2E2E2E2E2E2E2E2E2E2E2E2E2E2E2E2E2E2E2E2E2E2E2E2E2E2E2E2E2E2E2E2E2E2E2E2E2E2E2E2E2E2E2E2E2E2E2E2E2E2E2E2E2E2E2E2E2E2E2E2E2E2E2E2E2E2E2E2E2E2E2E2E2E2E2E2E2E2E2E2E2E2E2E2E2E2E2E2E2E2E2E2E2E2E2E2E2E2E2E2E2E2E2
310
E2E2E2E2E2E2E2E2E2E2E2E2E2E2E2E2E2E2E2E2E2E2E2E2E2E2E2E2E2E2E2E2E2E2E2E2E2E2E2E2E2E2F5E2E2E2F5F5E2E2E2F5E2E2E2E2E2E2E2E2E2E2E2E2E2E2E2E2E2E2E2E2E2E2E2E2E2E2E2E2E2E2E2E2E2E2E2E2E2E2E2E2E2E2E2E2E2E2E2E2E2E2E2E2E2E2E2E2E2E2E2E2E2E2E2E2E2E2E2E2E2E2E2E2E2E2E2
310
E2E2E2E2E2E2E2E2E2E2E2E2E2E2E2E2E2E2E2E2E2E2E2E2E2E2E2E2E2E2E2E2E2E2E2E2E2E2E2E2E2E2E2E2E2E2E2E2E2E2E2E2E2E2E2E2E2E2E2E2E2E2E2E2E2E2E2E2E2E2E2E2E2E2E2E2E2E2E2E2E2E2E2E2E2E2E2E2E2E2E2E2E2E2E2F5E2E2E2F5F5E2E2E2F5E2E2E2E2E2E2E2E2E2E2E2E2E2E2E2E2E2E2E2E2E2E2
310
E2E2E2E2E2E2E2E2E2E2E2E2E2E2E2E2E2E2E2E2E2E2E2E2E2E2E2E2E2E2E2E2E2E2E2E2E2E2E2E2E2E2E2E2E2E2E2E2E2E2E2E2E2E2E2E2E2E2E2E2E2E2E2E2E2E2E2E2E2E2E2E2E2E2E2E2E2E2E2E2E2E2E2E2E2E2E2E2E2E2E2E2E2E2E2E2E2E2E2E2E2E2E2E2E2E2E2E2E2E2E2E2E2E2E2E2E2E2E2E2E2E2E2E2E2E2E2
310
E2E2E2E2E2E2E2E2E2E2E2E2E2E2E2E2E2E2E2E2E2F5E2E2E2F5F5E2E2E2F5E2E2E2E2E2E2E2E2E2E2E2E2E2E2E2E2E2E2E2E2E2E2E2E2E2E2E2E2E2E2E2E2E2E2E2E2E2E2E2E2E2E2E2E2E2E2E2E2E2E2E2E2E2E2E2E2E2E2E2E2E2E2E2E2E2E2E2E2E2E2E2E2E2E2E2E2E2E2E2E2E2E2E2E2E2E2E2E2E2E2E2E2E2E2E2E2
310
E2E2E2E2E2E2E2E2E2E2E2E2E2E2E2E2E2E2E2E2E2E2E2E2E2E2E2E2E2E2E2E2E2E2E2E2E2E2E2E2E2E2E2E2E2E2E2E2E2E2E2E2E2E2E2E2E2E2E2E2E2E2E2E2E2E2E2E2E2E2E2E2E2E2F5E2E2E2F5F5E2E2E2F5E2E2E2E2E2E2E2E2E2E2E2E2E2E2E2E2E2E2E2E2E2E2E2E2E2E2E2E2E2E2E2E2E2E2E2E2E2E2E2E2E2E2E2
310
E2E2E2E2E2E2E2E2E2E2E2E2E2E2E2E2E2E2E2E2E2E2E2E2E2E2E2E2E2E2E2E2E2E2E2E2E2E2E2E2E2E2E2E2E2E2E2E2E2E2E2E2E2E2E2E2E2E2E2E2E2E2E2E2E2E2E2E2E2E2E2E2E2E2E2E2E2E2E2E2E2E2E2E2E2E2E2E2E2E2E2E2E2E2E2E2E2E2E2E2E2E2E2E2E2E2E2E2E2E2E2E2E2E2E2E2E2E2E2E2E2E2E2E2E2E2E2
310
F5E2E2E2F5F5E2E2E2F5E2E2E2E2E2E2E2E2E2E2E2E2E2E2E2E2E2E2E2E2E2E2E2E2E2E2E2E2E2E2E2E2E2E2E2E2E2E2E2E2E2E2E2E2E2E2E2E2E2E2E2E2E2E2E2E2E2E2E2E2E2E2E2E2E2E2E2E2E2E2E2E2E2E2E2E2E2E2E2E2E2E2E2E2E2E2E2E2E2E2E2E2E2E2E2E2E2E2E2E2E2E2E2E2E2E2E2E2E2E2E2E2E2E2E2E2E2
310
E2E2E2E2E2E2E2E2E2E2E2E2E2E2E2E2E2E2E2E2E2E2E2E2E2E2E2E2E2E2E2E2E2E2E2E2E2E2E2E2E2E2E2E2E2E2E2E2E2E2E2E2E2F5E2E2E2F5F5E2E2E2F5E2E2E2E2E2E2E2E2E2E2E2E2E2E2E2E2E2E2E2E2E2E2E2E2E2E2E2E2E2E2E2E2E2E2E2E2E2E2E2E2E2E2E2E2E2E2E2E2E2E2E2E2E2E2E2E2E2E2E2E2E2E2E2E2
310
E2E2E2E2E2E2E2E2E2E2E2E2E2E2E2E2E2E2E2E2E2E2E2E2E2E2E2E2E2E2E2E2E2E2E2E2E2E2E2E2E2E2E2E2E2E2E2E2E2E2E2E2E2E2E2E2E2E2E2E2E2E2E2E2E2E2E2E2E2E2E2E2E2E2E2E2E2E2E2E2E2E2E2E2E2E2E2E2E2E2E2E2E2E2E2E2E2E2E2E2E2E2E2E2E2E2F5E2E2E2F5F5E2E2E2F5F5F5F5F5F5F5F5E2E2E2E2
310
E2E2E2E2E2F5F5F5F5F5F5F5F5F5F5F5F5F5F5F5F5E2E2E2E2E2E2E2E2E2F5F5F5F5F5F5F5F5F5F5F5F5F5F5F5E2E2E2E2E2E2E2E2E2F5F5F5F5F5F5F5F5F5F5F5F5F5F5F5F5E2E2E2E2E2E2E2E2F5F5F5F5F5F5F5F5F5F5F5F5F5F5F5F5E2E2E2E2E2E2E2E2E2F5F5F5F5F5F5F5F5F5F5F5F5F5F5F5E2E2E2E2E2E2E2E2E2
310
F5F5F5F5F5F5F5F5F5F5F5F5F5F5F5F5E2E2E2E2E2E2E2E2E2F5F5F5F5F5F5F5F5E2E2E2F5F5E2E2E2E2E2E2E2E2E2E2E2E2E2E2E2E2E2E2E2E2E2E2E2E2E2E2E2E2E2E2E2E2E2E2E2E2E2E2E2E2E2E2E2E2E2E2E2E2E2E2E2E2E2E2E2E2E2E2E2E2E2E2E2E2E2E2E2E2E2E2E2E2E2E2E2E2E2E2E2E2E2E2E2E2E2E2E2E2E2
310
E2E2E2E2E2E2E2E2E2E2E2E2E2E2E2E2E2E2E2E2E2E2E2E2E2E2E2E2E2E2E2E2E2E2E2E2E2E2E2E2E2E2E2E2E2E2E2E2E2E2E2E2E2E2E2E2E2E2E2E2E2E2E2E2E2E2E2E2E2E2E2E2E2E2E2E2E2E2E2E2E2E2E2E2E2E2E2E2E2F5F5E2E2E2E2E2E2E2E2E2E2E2E2E2E2E2E2E2E2E2E2E2E2E2E2E2E2E2E2E2E2E2E2E2E2E2E2
310
E2E2E2E2E2E2E2E2E2E2E2E2E2E2E2E2E2E2E2E2E2E2E2E2E2E2E2E2E2E2E2E2E2E2E2E2E2E2E2E2E2E2E2E2E2E2E2E2E2E2E2E2E2E2E2E2E2E2E2E2E2E2E2E2E2E2E2E2E2E2E2E2E2E2E2E2E2E2E2E2E2E2E2E2E2E2E2E2E2E2E2E2E2E2E2E2E2E2E2E2E2E2E2E2E2E2E2E2E2E2E2E2E2E2E2E2E2E2E2E2E2E2E2E2E2E2E2
310
E2E2E2E2E2E2E2E2E2E2E2E2E2E2E2F5F5E2E2E2E2E2E2E2E2E2E2E2E2E2E2E2E2E2E2E2E2E2E2E2E2E2E2E2E2E2E2E2E2E2E2E2E2E2E2E2E2E2E2E2E2E2E2E2E2E2E2E2E2E2E2E2E2E2E2E2E2E2E2E2E2E2E2E2E2E2E2E2E2E2E2E2E2E2E2E2E2E2E2E2E2E2E2E2E2E2E2E2E2E2E2E2E2E2E2E2E2E2E2E2E2E2E2E2E2E2E2
310
E2E2E2E2E2E2E2E2E2E2E2E2E2E2E2E2E2E2E2E2E2E2E2E2E2E2E2E2E2E2E2E2E2E2E2E2E2E2E2E2E2E2E2E2E2E2E2E2E2E2E2E2E2E2E2E2E2E2E2E2E2E2E2E2E2E2E2E2F5F5F5F5F5F5F5F5F5F5F5F5F5F5F5F5F5F5F5F5F5F5F5F5F5F5F5F5F5F5F5F5F5F5F5F5F5F5F5F5F5F5F5F5F5F5F5F5F5F5F5F5F5F5F5F5F5F5F5
310
F5F5F5F5F5F5F5F5F5F5F5F5F5F5F5F5F5F5F5F5F5F5F5F5F5F5F5F5F5F5F5F5F5F5F5F5F5F5F5F5F5F5F5F5F5F5F5F5F5F5F5F5F5F5F5F5F5F5F5F5F5F5F5F5F5F5F5F5F5F5F5F5F5F5F5F5F5F5F5F5F5F5F5F5F5F5F5F5F5F5F5F5F5F5F5F5F5F5F5F5F5F5F5F5F5F5F5F5F5F5F5F5F5F5F5F5F5F5F5F5F5F5EFEFEFEFEF
310
EFEFEFEFEFEFEFEFEFEFEFEFEFEFEFEFEFEFEFEFEFEFEFEFEFEFEFEFEFEFEFEFEFEFEFEFEFEFEFEFEFEFEFEFEFEFEFEFEFEFEFEFEFEFEFEFEFEFEFEFEFEFEFEFEFEFEFEFEFEFEFEFEFEFEFEFEFEFEFEFEFEFEFEFEFEFEFEFEFEFEFEFEFEFEFEFEFEFEFEFEFEFEFEFEFEFEFEFEFEFEFEFEFEFEFEFEFEFEFEFEFEFEFEFEFEFEF
310
EFEFEFEFEFEFEFEFEFEFEFEFEFEFEFEFEFEFEFEFEFEFEFEFEFEFEFEFEFEFEFEFEFEFEFEFEFEFEFEFEFEFEFEFEFEFEFEF
  0
XRECORD
  5
31E12
102
{ACAD_REACTORS
330
31E11
102
}
330
31E11
100
AcDbXrecord
280
     1
102
SHADEPLOT
 70
     1
102
SHADEPLOTRESLEVEL
 70
     2
102
SHADEPLOTCUSTOMDPI
 70
   300
  0
XRECORD
  5
31E1F
102
{ACAD_REACTORS
330
31E1E
102
}
330
31E1E
100
AcDbXrecord
280
     1
102
MATERIAL
148
0.0
149
0.0
149
0.0
 93
        0
 94
       63
282
     0
 72
     1
 77
     1
171
     1
175
     1
179
     1
273
     0
  0
XRECORD
  5
31E1D
102
{ACAD_REACTORS
330
31E1C
102
}
330
31E1C
100
AcDbXrecord
280
     1
102
MATERIAL
148
0.0
149
0.0
149
0.0
 93
        0
 94
       63
282
     0
 72
     1
 77
     1
171
     1
175
     1
179
     1
273
     0
  0
XRECORD
  5
31E1B
102
{ACAD_REACTORS
330
31E1A
102
}
330
31E1A
100
AcDbXrecord
280
     1
102
MATERIAL
148
0.0
149
0.0
149
0.0
 93
        0
 94
       63
282
     0
 72
     1
 77
     1
171
     1
175
     1
179
     1
273
     0
  0
XRECORD
  5
31E15
102
{ACAD_REACTORS
330
31E14
102
}
330
31E14
100
AcDbXrecord
280
     1
102
ACAD_ROUNDTRIP_PRE2007_TABLESTYLE
 90
        4
 91
        0
  1

 92
        4
 93
        0
  2

 94
        4
 95
        0
  3

  0
ENDSEC
  0
EOF
